<?xml version="1.0" standalone="no"?>
<!DOCTYPE svg PUBLIC "-//W3C//DTD SVG 1.1//EN" "http://www.w3.org/Graphics/SVG/1.1/DTD/svg11.dtd" >
<svg xmlns="http://www.w3.org/2000/svg" xmlns:xlink="http://www.w3.org/1999/xlink" version="1.1">
<metadata></metadata>
<defs>
<font id="museo_sans_cyrl700" horiz-adv-x="802" >
<font-face units-per-em="2048" ascent="1536" descent="-512" />
<missing-glyph horiz-adv-x="512" />
<glyph unicode="ff" horiz-adv-x="1454" d="M68 838v206h129v31q0 71 16.5 129t42.5 97.5t63.5 69.5t75 46.5t81 27t78 14t69.5 3.5q57 0 88 -6v-221q-16 4 -54 4q-202 0 -202 -170v-25h471v31q0 71 16.5 129t42.5 97.5t63.5 69.5t75 46.5t81 27t78 14t69.5 3.5q57 0 88 -6v-221q-16 4 -54 4q-26 0 -49.5 -3 t-53 -13.5t-50 -28t-35 -50t-14.5 -75.5v-25h225v-206h-225v-838h-258v838h-471v-838h-258v838h-129z" />
<glyph unicode="fi" horiz-adv-x="1265" d="M68 838v206h129v31q0 71 16.5 129t42.5 97.5t63.5 69.5t75 46.5t81 27t78 14t69.5 3.5q57 0 88 -6v-221q-16 4 -54 4q-202 0 -202 -170v-25h671v-1044h-258v838h-413v-838h-258v838h-129zM866 1223v231h260v-231h-260z" />
<glyph unicode="fl" horiz-adv-x="1310" d="M70 823v207h129v45q0 71 16.5 129t43 97.5t64 69.5t75 46.5t81.5 27t78.5 14t69.5 3.5q57 0 88 -6v-221q-16 4 -53 4q-203 0 -203 -170v-39h225v-207h-225v-823h-260v823h-129zM858 326v1128h258v-1089q0 -82 26 -113t81 -31q25 0 39 2v-227q-54 -6 -82 -6q-49 0 -89 6 t-85.5 26.5t-76 55.5t-51 98.5t-20.5 149.5z" />
<glyph unicode="ffi" horiz-adv-x="1994" d="M68 838v206h129v31q0 71 16.5 129t42.5 97.5t63.5 69.5t75 46.5t81 27t78 14t69.5 3.5q57 0 88 -6v-221q-16 4 -54 4q-202 0 -202 -170v-25h471v31q0 71 16.5 129t42.5 97.5t63.5 69.5t75 46.5t81 27t78 14t69.5 3.5q57 0 88 -6v-221q-16 4 -54 4q-26 0 -49.5 -3 t-53 -13.5t-50 -28t-35 -50t-14.5 -75.5v-25h671v-1044h-258v838h-413v-838h-258v838h-471v-838h-258v838h-129zM1597 1223v231h261v-231h-261z" />
<glyph unicode="ffl" horiz-adv-x="2035" d="M68 838v206h129v31q0 71 16.5 129t42.5 97.5t63.5 69.5t75 46.5t81 27t78 14t69.5 3.5q57 0 88 -6v-221q-16 4 -54 4q-202 0 -202 -170v-25h471v31q0 71 16.5 129t42.5 97.5t63.5 69.5t75 46.5t81 27t78 14t69.5 3.5q57 0 88 -6v-221q-16 4 -54 4q-26 0 -49.5 -3 t-53 -13.5t-50 -28t-35 -50t-14.5 -75.5v-25h225v-206h-225v-838h-258v838h-471v-838h-258v838h-129zM1583 326v1128h260v-1089q0 -82 26 -113t81 -31q25 0 39 2v-227q-54 -6 -82 -6q-40 0 -74 4.5t-73 16t-69 35.5t-55.5 59.5t-39 92t-13.5 128.5z" />
<glyph unicode="fj" horiz-adv-x="1265" d="M68 838v206h129v31q0 71 16.5 129t42.5 97.5t63.5 69.5t75 46.5t81 27t78 14t69.5 3.5q57 0 88 -6v-221q-16 4 -54 4q-202 0 -202 -170v-25h671v-1075q0 -100 -32.5 -175t-79 -115t-110 -65t-112.5 -31.5t-100 -6.5q-40 0 -80 6v219q24 -4 45 -4q26 0 50.5 3.5t55 15.5 t53 32t37.5 56.5t15 85.5v848h-413v-838h-258v838h-129zM866 1223v231h260v-231h-260z" />
<glyph unicode=" "  horiz-adv-x="512" />
<glyph unicode="&#x09;" horiz-adv-x="512" />
<glyph unicode="&#xa0;" horiz-adv-x="512" />
<glyph unicode="!" horiz-adv-x="589" d="M160 1454h268l-20 -1034h-228zM168 0v244h252v-244h-252z" />
<glyph unicode="&#x22;" horiz-adv-x="804" d="M141 1053v428h195v-428h-195zM471 1053v428h193v-428h-193z" />
<glyph unicode="#" horiz-adv-x="1464" d="M80 383l33 186h243l52 287h-242l31 188h241l72 410h209l-72 -410h279l71 410h209l-71 -410h247l-32 -188h-246l-51 -287h243l-30 -186h-244l-68 -383h-209l68 383h-281l-65 -383h-209l66 383h-244zM565 569h279l51 287h-281z" />
<glyph unicode="$" horiz-adv-x="1200" d="M109 174l141 199q69 -66 168 -110t194 -44q89 0 151 45.5t62 130.5q0 39 -23.5 72.5t-63.5 59.5t-92 51t-109.5 50t-115 52.5t-109.5 64t-92 79.5t-63.5 103t-23.5 130q0 157 107 270t278 141v193h174v-188q213 -16 361 -150l-115 -215q-63 55 -150 91t-170 36 q-93 0 -157 -49t-64 -125q0 -39 23.5 -71.5t64 -57.5t92.5 -48.5t109.5 -47.5t114.5 -51t109 -63.5t92.5 -80t64 -105.5t23.5 -135q0 -161 -106.5 -278t-291.5 -141v-189h-174v189q-115 13 -224.5 62.5t-184.5 129.5z" />
<glyph unicode="%" horiz-adv-x="1638" d="M88 1155q0 133 97.5 228.5t236.5 95.5q138 0 237 -96t99 -228q0 -135 -99 -229.5t-237 -94.5q-139 0 -236.5 94.5t-97.5 229.5zM139 0l1116 1454h240l-1116 -1454h-240zM287 1155q0 -57 39 -96t96 -39t97 39t40 96q0 56 -40 95.5t-97 39.5t-96 -39.5t-39 -95.5zM883 297 q0 133 97.5 228.5t236.5 95.5q137 0 235 -95.5t98 -228.5t-97.5 -227.5t-235.5 -94.5q-139 0 -236.5 94t-97.5 228zM1081 299q0 -57 39.5 -96t96.5 -39t97 39t40 96q0 56 -40 95.5t-97 39.5t-96.5 -39.5t-39.5 -95.5z" />
<glyph unicode="&#x26;" horiz-adv-x="1400" d="M104 412q0 121 67 222t179 140v4q-84 39 -134 123t-50 195q0 125 63.5 213t166 129t231.5 41q77 0 190 -25l-63 -209q-44 12 -97 12q-98 0 -160.5 -51t-62.5 -143q0 -34 10.5 -66t34 -61.5t68.5 -47.5t106 -18h234v189h260v-189h188v-229h-188v-172q0 -225 -139.5 -359.5 t-384.5 -134.5q-231 0 -375 124.5t-144 312.5zM375 428q0 -90 69 -150.5t179 -60.5q126 0 195 68t69 198v158h-246q-124 0 -195 -54.5t-71 -158.5z" />
<glyph unicode="'" horiz-adv-x="481" d="M141 1053v428h197v-428h-197z" />
<glyph unicode="(" horiz-adv-x="630" d="M98 702q0 431 244 816h219q-231 -388 -231 -818q0 -465 231 -895h-219q-116 190 -180 420t-64 477z" />
<glyph unicode=")" horiz-adv-x="630" d="M70 -195q231 430 231 895q0 430 -231 818h219q243 -383 243 -816q0 -248 -63.5 -478t-179.5 -419h-219z" />
<glyph unicode="*" horiz-adv-x="1013" d="M90 1065l70 221l248 -100l-19 268h236l-21 -268l250 100l72 -219l-260 -66v-4l172 -202l-189 -138l-141 226h-4l-139 -226l-189 136l172 204v4z" />
<glyph unicode="+" horiz-adv-x="1200" d="M51 483v203h445v485h211v-485h442v-203h-442v-483h-211v483h-445z" />
<glyph unicode="," horiz-adv-x="577" d="M51 -215l139 479h259l-199 -479h-199z" />
<glyph unicode="-" horiz-adv-x="884" d="M135 471v227h615v-227h-615z" />
<glyph unicode="." horiz-adv-x="530" d="M135 0v262h260v-262h-260z" />
<glyph unicode="/" horiz-adv-x="880" d="M68 -86l522 1614h223l-522 -1614h-223z" />
<glyph unicode="0" horiz-adv-x="1286" d="M115 729q0 130 16.5 239t55.5 205t98.5 162.5t150.5 105t207 38.5t207 -38.5t150 -105t97.5 -162.5t55 -205t16.5 -239t-16.5 -239.5t-55 -206t-97.5 -164t-150 -106t-207 -38.5t-207 38.5t-150.5 106t-98.5 164t-55.5 206t-16.5 239.5zM387 729q0 -512 256 -512t256 512 q0 506 -256 506t-256 -506z" />
<glyph unicode="1" horiz-adv-x="1058" d="M92 1104l365 350h231v-1227h316v-227h-889v227h317v807l2 99h-4q-18 -35 -65 -82l-117 -111z" />
<glyph unicode="2" horiz-adv-x="1193" d="M106 129q0 106 37.5 198.5t97.5 158.5t132.5 124t145 107t132.5 95.5t97.5 101t37.5 112.5q0 93 -63 148t-158 55q-80 0 -150 -48.5t-112 -123.5l-197 131q68 127 192.5 209t289.5 82q129 0 235 -49.5t172 -148.5t66 -232q0 -95 -36 -177.5t-93.5 -142.5t-127.5 -113 t-140.5 -98.5t-129.5 -89t-97 -95t-40 -106.5h686v-227h-964q-13 76 -13 129z" />
<glyph unicode="3" horiz-adv-x="1173" d="M78 170l135 203q63 -64 151.5 -106t180.5 -42q112 0 186 61.5t74 155.5q0 110 -87 168t-224 58h-101l-57 135l266 315q24 30 50.5 58t40.5 40l14 13v4q-45 -6 -129 -6h-435v227h887v-166l-354 -411q77 -11 146.5 -43.5t126 -84t89.5 -128.5t33 -168q0 -94 -35 -179.5 t-98.5 -152.5t-162 -106.5t-216.5 -39.5q-133 0 -260.5 50.5t-220.5 144.5z" />
<glyph unicode="4" horiz-adv-x="1267" d="M61 375v162l629 917h311v-860h189v-219h-189v-375h-260v375h-680zM340 594h401v450q0 32 2.5 70t5.5 60l3 22h-4q-33 -78 -72 -133l-336 -465v-4z" />
<glyph unicode="5" horiz-adv-x="1167" d="M90 172l137 199q57 -62 137.5 -104t172.5 -42q111 0 191.5 68.5t80.5 179.5q0 113 -82.5 182.5t-208.5 69.5q-122 0 -225 -61l-148 53l68 737h766v-227h-537l-22 -240l-10 -67h4q22 11 69.5 21.5t85.5 10.5q234 0 373 -137t139 -340q0 -215 -149 -357.5t-375 -142.5 q-133 0 -256 51t-211 146z" />
<glyph unicode="6" horiz-adv-x="1236" d="M106 664q0 117 26 232t80.5 220.5t132 186t189 128.5t242.5 48q169 0 299 -62l-78 -227q-31 18 -92.5 31.5t-113.5 13.5q-82 0 -150.5 -32.5t-114.5 -88t-76 -123.5t-44 -145h4q36 44 114.5 73t157.5 29q139 0 246.5 -67t163 -177t55.5 -243t-58.5 -243.5t-168.5 -176.5 t-250 -66q-114 0 -216 47t-179.5 133t-123 218t-45.5 291zM381 567q0 -82 37.5 -162t105.5 -134t148 -54q96 0 155.5 70t59.5 174q0 117 -70 193.5t-196 76.5q-99 0 -169.5 -44t-70.5 -120z" />
<glyph unicode="7" horiz-adv-x="1120" d="M78 1227v227h999v-184l-637 -1270h-274l545 1094q21 40 42 73t31 47l11 13v4q-23 -4 -97 -4h-620z" />
<glyph unicode="8" horiz-adv-x="1249" d="M102 420q0 58 18 113.5t43 95t59 76.5t56.5 56t45.5 36q-152 117 -152 282q0 79 29 149.5t84.5 127t147 90t206.5 33.5q207 0 339 -109t132 -293q0 -59 -18.5 -119.5t-48 -109.5t-52 -79.5t-43.5 -53.5q89 -57 138 -129.5t49 -177.5q0 -84 -35 -161.5t-99 -138.5 t-163 -97t-217 -36q-230 0 -374.5 128t-144.5 317zM373 440q0 -99 73.5 -165t174.5 -66q104 0 174.5 58t70.5 151q0 32 -15.5 61t-37 49t-62 43.5t-71 37.5t-85.5 38.5t-85 38.5q-137 -117 -137 -246zM432 1075q0 -20 5 -39t12 -34t22 -31t27 -27t35 -25.5t37 -22.5 t43 -21.5t44 -20t48 -21t47 -20.5q100 122 100 244q0 86 -60 136t-159 50q-95 0 -148 -47.5t-53 -120.5z" />
<glyph unicode="9" horiz-adv-x="1236" d="M88 991q0 134 58.5 245t169 177t251.5 66q114 0 215.5 -47t178.5 -133.5t122 -218.5t45 -292q0 -116 -25.5 -230.5t-80.5 -220t-132 -186t-188.5 -128.5t-242.5 -48q-170 0 -297 62l78 227q96 -47 204 -47q83 0 151.5 32.5t114.5 88t76.5 123t44.5 145.5h-4 q-36 -44 -114.5 -73t-157.5 -29q-139 0 -247 67.5t-164 177.5t-56 242zM350 991q0 -116 70.5 -193t195.5 -77q99 0 169.5 46t70.5 112q0 138 -87 247t-200 109q-100 0 -159.5 -69t-59.5 -175z" />
<glyph unicode=":" horiz-adv-x="528" d="M135 0v260h258v-260h-258zM135 784v260h258v-260h-258z" />
<glyph unicode=";" horiz-adv-x="604" d="M80 -215l119 479h258l-178 -479h-199zM205 784v260h252v-260h-252z" />
<glyph unicode="&#x3c;" horiz-adv-x="1200" d="M80 502v168l985 438v-227l-711 -293v-4l711 -293v-228z" />
<glyph unicode="=" horiz-adv-x="1200" d="M100 274v201h1000v-201h-1000zM100 694v201h1000v-201h-1000z" />
<glyph unicode="&#x3e;" horiz-adv-x="1200" d="M133 63v228l711 293v4l-711 293v227l985 -438v-168z" />
<glyph unicode="?" horiz-adv-x="989" d="M72 1335q67 64 167.5 106t217.5 42t218 -44.5t165.5 -134t64.5 -206.5q0 -69 -19.5 -127.5t-51.5 -100.5t-70 -79t-76 -69.5t-70 -65t-51.5 -72t-19.5 -84.5v-80h-250v98q0 70 25 129.5t62 98.5t81 79.5t81 73.5t62 78.5t25 95.5q0 72 -57 121t-142 49q-113 0 -217 -86z M295 0v244h252v-244h-252z" />
<glyph unicode="@" horiz-adv-x="1669" d="M106 492q0 157 60 298.5t162.5 243.5t245.5 161.5t303 59.5q151 0 263.5 -36t176 -99.5t93.5 -140.5t30 -170v-512h149v-186h-567q-100 0 -184.5 32t-139.5 85t-85.5 121.5t-30.5 142.5q0 154 119 264t321 110h174q-1 79 -89 130t-222 51q-145 0 -266 -78t-189 -205 t-68 -272q0 -112 39.5 -212t110 -174.5t176.5 -118.5t232 -44v-203q-180 0 -333 58.5t-258 159.5t-164 239.5t-59 294.5zM842 498q0 -85 54.5 -143t141.5 -58h158v401h-154q-90 0 -145 -58t-55 -142z" />
<glyph unicode="A" horiz-adv-x="1331" d="M16 0l510 1454h279l510 -1454h-271l-124 373h-510l-123 -373h-271zM475 588h379l-129 389q-11 36 -25.5 92.5t-23.5 94.5l-8 38h-4q-33 -143 -58 -225z" />
<glyph unicode="B" horiz-adv-x="1296" d="M176 0v1454h518q203 0 327 -99.5t124 -275.5q0 -102 -46.5 -184.5t-129.5 -126.5v-4q114 -34 174.5 -129t60.5 -213q0 -106 -40.5 -188.5t-110.5 -132.5t-159 -75.5t-192 -25.5h-526zM440 227h283q99 0 155 58.5t56 152.5q0 93 -56.5 151t-154.5 58h-283v-420zM440 860 h256q84 0 132.5 53t48.5 134t-48.5 130.5t-136.5 49.5h-252v-367z" />
<glyph unicode="C" horiz-adv-x="1466" d="M92 733q0 209 95 379.5t266.5 268.5t386.5 98q150 0 292 -50t244 -149l-127 -197q-79 68 -186.5 111t-210.5 43q-116 0 -210 -40t-153.5 -109.5t-91.5 -159t-32 -191.5q0 -103 32.5 -196t93 -165.5t154.5 -115.5t209 -43q114 0 225 50t197 134l139 -190 q-232 -236 -571 -236q-224 0 -396.5 100.5t-264 272t-91.5 385.5z" />
<glyph unicode="D" horiz-adv-x="1509" d="M176 0v1454h496q340 0 540.5 -192t200.5 -533t-200.5 -535t-540.5 -194h-496zM440 227h217q225 0 354.5 130t129.5 372q0 239 -130.5 368.5t-353.5 129.5h-217v-1000z" />
<glyph unicode="E" horiz-adv-x="1163" d="M176 0v1454h871v-227h-607v-381h490v-228h-490v-391h639v-227h-903z" />
<glyph unicode="F" horiz-adv-x="1071" d="M176 0v1454h836v-227h-572v-412h482v-227h-482v-588h-264z" />
<glyph unicode="G" horiz-adv-x="1568" d="M92 729q0 156 57 295t155.5 239t238.5 158t299 58q150 0 291 -46t249 -139l-131 -196q-68 60 -176.5 99.5t-210.5 39.5q-119 0 -215 -40t-157.5 -109t-94 -159t-32.5 -192q0 -115 38 -213t103.5 -165t155 -104.5t190.5 -37.5q99 0 195.5 41t169.5 111v170h-224v227h461 v-766h-225v70l2 61h-4q-72 -70 -185.5 -113t-236.5 -43q-143 0 -273 54.5t-227.5 150.5t-155 239t-57.5 310z" />
<glyph unicode="H" horiz-adv-x="1544" d="M176 0v1454h264v-616h666v616h262v-1454h-262v610h-666v-610h-264z" />
<glyph unicode="I" horiz-adv-x="616" d="M176 0v1454h264v-1454h-264z" />
<glyph unicode="J" horiz-adv-x="1118" d="M49 430v84h262v-68q0 -99 47 -164t144 -65q83 0 136.5 53.5t53.5 163.5v793h-377v227h639v-1024q0 -114 -39 -204t-104 -143t-144 -80.5t-165 -27.5q-69 0 -133.5 17t-123 53.5t-102 89t-69 128.5t-25.5 167z" />
<glyph unicode="K" horiz-adv-x="1306" d="M176 0v1454h264v-592h189l342 592h286l-411 -692v-4l436 -758h-299l-354 635h-189v-635h-264z" />
<glyph unicode="L" horiz-adv-x="1097" d="M176 0v1454h264v-1227h629v-227h-893z" />
<glyph unicode="M" horiz-adv-x="1761" d="M121 0l119 1454h280l287 -719q15 -38 33 -91.5t28 -87.5l11 -34h4q38 127 71 213l287 719h281l118 -1454h-264l-59 813q-5 43 -5 99v22q0 41 2 69l1 35h-4q-47 -141 -80 -225l-236 -563h-229l-236 563q-15 37 -34.5 94t-31.5 95l-13 38h-5q3 -56 3 -106q0 -66 -5 -121 l-59 -813h-264z" />
<glyph unicode="N" horiz-adv-x="1542" d="M176 0v1454h264l551 -840q24 -38 54 -94.5t49 -93.5l18 -37h4q-14 139 -14 225v840h262v-1454h-262l-551 838q-24 38 -54.5 94.5t-48.5 93.5l-18 37h-4q14 -139 14 -225v-838h-264z" />
<glyph unicode="O" horiz-adv-x="1683" d="M90 737q0 206 95.5 375.5t268 268t388.5 98.5t388.5 -98.5t267.5 -268t95 -375.5q0 -212 -95 -386t-267.5 -275t-388.5 -101t-388.5 101t-268 275t-95.5 386zM362 737q0 -223 136 -371.5t344 -148.5t343.5 148.5t135.5 371.5q0 214 -135.5 357t-343.5 143t-344 -143 t-136 -357z" />
<glyph unicode="P" horiz-adv-x="1259" d="M176 0v1454h561q205 0 334 -131t129 -342q0 -212 -129.5 -345.5t-333.5 -133.5h-297v-502h-264zM440 731h248q114 0 179 67.5t65 182.5q0 113 -64 179.5t-176 66.5h-252v-496z" />
<glyph unicode="Q" horiz-adv-x="1683" d="M90 735q0 155 56.5 292.5t155 236.5t239 157t301.5 58q162 0 302.5 -58t238.5 -157t154 -236.5t56 -292.5q0 -255 -159 -461l163 -147l-151 -168l-160 160q-193 -144 -444 -144q-162 0 -302.5 59.5t-239 161.5t-154.5 242t-56 297zM362 735q0 -220 137.5 -369t342.5 -149 q147 0 254 78l-162 151l149 166l158 -157q80 125 80 280q0 215 -137.5 358.5t-341.5 143.5q-206 0 -343 -143.5t-137 -358.5z" />
<glyph unicode="R" horiz-adv-x="1310" d="M176 0v1454h479q187 0 275 -39q115 -47 180.5 -149.5t65.5 -247.5q0 -132 -65.5 -242t-178.5 -155v-5q18 -22 47 -75l299 -541h-297l-287 543h-254v-543h-264zM440 772h238q106 0 167.5 62.5t61.5 169.5q0 151 -114 198q-58 25 -160 25h-193v-455z" />
<glyph unicode="S" horiz-adv-x="1140" d="M72 174l143 199q71 -65 168 -109.5t192 -44.5q97 0 155 46t58 120q0 49 -29 89.5t-76.5 68t-108.5 57t-124.5 55t-124.5 63.5t-108.5 81.5t-76.5 110t-29 147.5q0 189 140 305.5t355 116.5q117 0 229.5 -40t196.5 -116l-117 -215q-62 56 -148.5 91.5t-170.5 35.5 q-100 0 -160.5 -45.5t-60.5 -120.5q0 -54 37.5 -96.5t97 -72.5t132 -59t145 -65.5t132 -82.5t97 -119.5t37.5 -167.5q0 -185 -129.5 -308t-354.5 -123q-138 0 -269.5 51.5t-227.5 147.5z" />
<glyph unicode="T" horiz-adv-x="1273" d="M29 1227v227h1216v-227h-477v-1227h-262v1227h-477z" />
<glyph unicode="U" horiz-adv-x="1490" d="M160 522v932h264v-930q0 -146 86.5 -226.5t234.5 -80.5t235 80.5t87 226.5v930h264v-932q0 -245 -160.5 -396t-422.5 -151q-264 0 -426 151t-162 396z" />
<glyph unicode="V" horiz-adv-x="1343" d="M10 1454h285l319 -948q12 -37 26 -90.5t22 -87.5l8 -35h4q28 129 55 213l324 948h280l-524 -1454h-274z" />
<glyph unicode="W" horiz-adv-x="1957" d="M47 1454h277l225 -1005q8 -36 14 -74.5t8 -58.5l2 -21h5q7 70 30 154l260 1005h222l258 -1005q10 -37 17.5 -75.5t10.5 -58.5l2 -20h4q5 72 23 154l242 1005h272l-377 -1454h-297l-227 860q-10 42 -19.5 89.5t-13.5 74.5l-4 27h-6q-14 -97 -39 -191l-225 -860h-301z" />
<glyph unicode="X" horiz-adv-x="1273" d="M27 0l450 737l-434 717h301l201 -356l90 -178h4q41 92 90 178l203 356h301l-436 -717l452 -737h-295l-227 391l-90 172h-4q-41 -88 -88 -172l-226 -391h-292z" />
<glyph unicode="Y" horiz-adv-x="1241" d="M4 1454h299l227 -428q20 -40 42 -89t34 -77l12 -29h5q43 105 88 195l225 428h299l-483 -846v-608h-263v608z" />
<glyph unicode="Z" horiz-adv-x="1249" d="M74 0v170l645 926q25 37 51.5 70t40.5 47l14 14v4q-40 -4 -108 -4h-611v227h1051v-168l-645 -928q-25 -37 -51.5 -70t-40.5 -47l-14 -14v-4q40 4 108 4h653v-227h-1093z" />
<glyph unicode="[" horiz-adv-x="657" d="M164 -195v1713h403v-189h-182v-1335h182v-189h-403z" />
<glyph unicode="\" horiz-adv-x="880" d="M68 1528h223l522 -1614h-223z" />
<glyph unicode="]" horiz-adv-x="657" d="M90 -6h182v1335h-182v189h404v-1713h-404v189z" />
<glyph unicode="^" horiz-adv-x="1267" d="M133 502l412 952h164l411 -952h-225l-268 678l-269 -678h-225z" />
<glyph unicode="_" horiz-adv-x="1239" d="M45 0h1149v-201h-1149v201z" />
<glyph unicode="`" horiz-adv-x="1009" d="M293 1829h268l156 -279h-211z" />
<glyph unicode="a" horiz-adv-x="1099" d="M59 289q0 65 22 118.5t58 91t87.5 66t104.5 45t115.5 27.5t115 14.5t106.5 3.5h45v15q0 97 -54 140.5t-143 43.5q-144 0 -291 -100l-96 186q67 54 181.5 91.5t228.5 37.5q205 0 319.5 -109.5t114.5 -306.5v-653h-242v88q0 19 1.5 38t3.5 28l1 10h-4q-48 -85 -137 -137 t-193 -52q-145 0 -244.5 87.5t-99.5 226.5zM317 311q0 -56 42 -96.5t116 -40.5q103 0 171.5 86.5t68.5 188.5v28h-45q-46 0 -87.5 -3t-92.5 -13.5t-87 -27.5t-61 -48.5t-25 -73.5z" />
<glyph unicode="b" horiz-adv-x="1257" d="M139 0v1454h260v-453q0 -23 -1.5 -45t-3.5 -32l-1 -11h4q46 70 132.5 113t183.5 43q211 0 337 -151t126 -396q0 -246 -135 -396.5t-345 -150.5q-94 0 -179.5 43t-135.5 119h-4q4 -28 4 -69v-68h-242zM391 516q0 -131 68.5 -226t191.5 -95q112 0 187 86.5t75 236.5 q0 148 -71.5 238t-186.5 90q-112 0 -188 -83.5t-76 -246.5z" />
<glyph unicode="c" horiz-adv-x="1122" d="M76 522q0 149 68.5 273t199.5 199t299 75q113 0 221.5 -39t179.5 -117l-116 -178q-51 51 -123.5 82t-147.5 31q-142 0 -229.5 -93.5t-87.5 -230.5t90 -232t236 -95q81 0 163.5 37t143.5 96l100 -185q-74 -78 -189.5 -124t-240.5 -46q-127 0 -234 43t-179.5 117t-113 174 t-40.5 213z" />
<glyph unicode="d" horiz-adv-x="1257" d="M80 522q0 247 132 397t341 150q92 0 174 -34.5t131 -102.5h4q-4 26 -4 61v461h258v-1454h-244v90l5 66h-5q-47 -82 -133.5 -131.5t-195.5 -49.5q-210 0 -336.5 151.5t-126.5 395.5zM342 522q0 -148 72 -237.5t188 -89.5q111 0 186.5 83t75.5 246q0 132 -68 227t-192 95 q-111 0 -186.5 -87t-75.5 -237z" />
<glyph unicode="e" horiz-adv-x="1148" d="M76 522q0 241 148.5 394t383.5 153q145 0 251.5 -67t159 -178t52.5 -251q0 -34 -8 -100h-719q12 -131 100 -203.5t213 -72.5q158 0 299 114l103 -186q-79 -70 -192.5 -110t-227.5 -40q-168 0 -298 75t-197.5 199t-67.5 273zM350 651h461q-1 102 -60 161.5t-149 59.5 q-99 0 -166 -60t-86 -161z" />
<glyph unicode="f" horiz-adv-x="729" d="M70 823v207h129v45q0 71 16.5 129t43 97.5t64 69.5t75 46.5t81.5 27t78.5 14t69.5 3.5q57 0 88 -6v-221q-16 4 -53 4q-203 0 -203 -170v-39h225v-207h-225v-823h-260v823h-129z" />
<glyph unicode="g" horiz-adv-x="1241" d="M82 549q0 146 51.5 262t157.5 187t252 71q94 0 177.5 -34t133.5 -103h6q-4 13 -4 29v83h246v-981q0 -104 -31.5 -188.5t-84 -140t-124 -93.5t-149.5 -54.5t-162 -16.5q-96 0 -195 24.5t-178 65.5l80 199q139 -68 289 -68q131 0 213 61.5t82 192.5v66l4 55h-4 q-97 -146 -293 -146q-145 0 -252.5 73t-161 191.5t-53.5 264.5zM344 557q0 -141 69 -229t193 -88q49 0 90 15.5t76.5 49t55.5 95.5t20 147q0 301 -258 301q-117 0 -181.5 -78.5t-64.5 -212.5z" />
<glyph unicode="h" horiz-adv-x="1253" d="M139 0v1454h260v-508q0 -23 -1.5 -45t-3.5 -33l-1 -10h4q43 84 140.5 147.5t222.5 63.5q364 0 364 -397v-672h-260v618q0 104 -36 158.5t-128 54.5q-135 0 -218 -97.5t-83 -248.5v-485h-260z" />
<glyph unicode="i" horiz-adv-x="538" d="M139 0v1044h260v-1044h-260zM139 1223v231h260v-231h-260z" />
<glyph unicode="j" horiz-adv-x="538" d="M-115 -199q24 -4 45 -4q26 0 50.5 3.5t54.5 15.5t52 32t37 56.5t15 85.5v1054h260v-1075q0 -100 -32.5 -175t-79 -115t-110 -65t-113 -31.5t-101.5 -6.5q-37 0 -78 6v219zM139 1223v231h260v-231h-260z" />
<glyph unicode="k" horiz-adv-x="1124" d="M139 0v1454h260v-778h129l252 368h289l-330 -466v-5l371 -573h-299l-276 457h-136v-457h-260z" />
<glyph unicode="l" horiz-adv-x="591" d="M139 326v1128h258v-1089q0 -82 26 -113t81 -31q25 0 39 2v-227q-54 -6 -82 -6q-49 0 -89 6t-85.5 26.5t-76 55.5t-51 98.5t-20.5 149.5z" />
<glyph unicode="m" horiz-adv-x="1867" d="M139 0v1044h250v-122l-4 -74h4q42 86 135 153.5t207 67.5q237 0 303 -215h4q46 88 143.5 151.5t213.5 63.5q342 0 342 -397v-672h-258v623q0 65 -10.5 108t-43.5 71.5t-90 28.5q-85 0 -147 -53.5t-90.5 -134t-28.5 -174.5v-469h-260v623q0 38 -3 65.5t-11.5 56 t-23.5 46.5t-41 29t-62 11q-87 0 -150 -55.5t-91 -135.5t-28 -171v-469h-260z" />
<glyph unicode="n" horiz-adv-x="1253" d="M139 0v1044h250v-122l-4 -74h4q18 37 47.5 72.5t74 70.5t109.5 56.5t140 21.5q364 0 364 -397v-672h-260v618q0 104 -36 158.5t-128 54.5q-135 0 -218 -98.5t-83 -243.5v-489h-260z" />
<glyph unicode="o" horiz-adv-x="1298" d="M76 522q0 156 77 282t207.5 195.5t286.5 69.5q158 0 289.5 -69.5t209 -195.5t77.5 -282q0 -157 -77.5 -283t-208 -195t-288.5 -69t-288.5 69t-207.5 195t-77 283zM340 522q0 -143 89.5 -234t219.5 -91q131 0 221.5 91t90.5 234q0 142 -91 234t-221 92t-219.5 -92 t-89.5 -234z" />
<glyph unicode="p" horiz-adv-x="1257" d="M139 -410v1454h238v-77l-4 -74h4q50 84 139.5 130t196.5 46q211 0 337 -151t126 -396q0 -246 -135 -396.5t-343 -150.5q-89 0 -167 38.5t-134 109.5h-4q6 -37 6 -90v-443h-260zM391 516q0 -130 69.5 -225.5t190.5 -95.5q112 0 187 86.5t75 236.5q0 148 -71.5 238 t-186.5 90q-112 0 -188 -83.5t-76 -246.5z" />
<glyph unicode="q" horiz-adv-x="1257" d="M80 522q0 247 132 397t341 150q96 0 182 -40.5t137 -113.5h5q-5 27 -5 66v63h244v-1454h-258v453l4 90h-4q-48 -70 -131 -114t-184 -44q-210 0 -336.5 151.5t-126.5 395.5zM342 522q0 -148 72 -237.5t188 -89.5q111 0 186.5 83t75.5 246q0 132 -68 227t-192 95 q-111 0 -186.5 -87t-75.5 -237z" />
<glyph unicode="r" horiz-adv-x="811" d="M139 0v1044h250v-184l-4 -72h4q37 115 127.5 193t204.5 78q17 0 49 -4v-256q-20 4 -63 4q-77 0 -137.5 -31.5t-97 -85.5t-55 -121t-18.5 -143v-422h-260z" />
<glyph unicode="s" horiz-adv-x="935" d="M55 129l117 172q58 -54 138 -84.5t159 -30.5q69 0 107 27.5t38 77.5q0 33 -28.5 59t-74.5 45.5t-101 39.5t-110 46.5t-101 61t-74.5 89t-28.5 124.5q0 148 114 230.5t286 82.5q216 0 352 -119l-96 -182q-45 39 -120 64.5t-145 25.5q-69 0 -107 -25.5t-38 -74.5 q0 -33 28.5 -59.5t74.5 -45.5t101 -38t110 -45.5t101 -60t74.5 -88t28.5 -124.5q0 -140 -109 -231t-286 -91q-113 0 -222 39.5t-188 114.5z" />
<glyph unicode="t" horiz-adv-x="763" d="M55 823v207h142v299h254v-299h237v-207h-237v-407q0 -49 15 -86t36.5 -57.5t51 -33.5t54 -16.5t49.5 -3.5q28 0 48 4v-227q-60 -6 -80 -6q-36 0 -70.5 3t-79 13.5t-83 27.5t-77 47.5t-65 70.5t-43.5 99.5t-17 131.5v440h-135z" />
<glyph unicode="u" horiz-adv-x="1243" d="M129 373v671h260v-618q0 -104 35.5 -158.5t126.5 -54.5q135 0 214 102.5t79 249.5v479h258v-1044h-250v123l6 72h-4q-41 -88 -139 -154t-223 -66q-363 0 -363 398z" />
<glyph unicode="v" horiz-adv-x="1116" d="M27 1044h274l217 -647q8 -27 17 -66.5t15 -64.5l5 -26h4q19 96 37 157l217 647h274l-374 -1044h-307z" />
<glyph unicode="w" horiz-adv-x="1701" d="M39 1044h274l183 -686q6 -24 11 -51.5t7 -42.5l2 -16h4q11 55 25 110l192 684h232l192 -684l23 -110h4q6 55 22 110l183 686h270l-317 -1044h-289l-176 596l-27 113h-4q-11 -58 -25 -113l-178 -596h-291z" />
<glyph unicode="x" horiz-adv-x="1062" d="M31 0l344 528l-336 516h295l162 -284l32 -66h4q21 39 35 66l162 284h295l-336 -516l346 -528h-291l-180 303l-31 55h-4q-14 -32 -28 -55l-181 -303h-288z" />
<glyph unicode="y" horiz-adv-x="1116" d="M8 1044h293l219 -602q9 -24 18.5 -59.5t15.5 -58.5l5 -23h4q19 82 35 137l205 606h282l-464 -1202q-52 -136 -153 -204t-224 -68q-56 0 -110 17t-80 34l-27 17l86 194q57 -43 114 -43t106 34.5t77 100.5l39 92z" />
<glyph unicode="z" horiz-adv-x="1073" d="M72 0v139l471 588q21 26 43 50t34 35l11 11v4q-31 -4 -99 -4h-440v221h889v-141l-469 -588q-20 -26 -42.5 -50t-35.5 -35l-12 -11v-4q30 6 98 6h475v-221h-923z" />
<glyph unicode="{" horiz-adv-x="759" d="M76 557v227q83 12 128.5 68t45.5 149v177q0 64 14 117t37 88t55 61.5t64 41.5t69.5 24t65.5 11.5t57 2.5l64 -2v-193q-17 2 -37 2q-26 0 -50 -6t-52.5 -22t-46 -53.5t-17.5 -92.5v-223q0 -91 -46.5 -160.5t-123.5 -99.5v-4q77 -29 123.5 -93t46.5 -165v-246 q0 -45 12.5 -78.5t30 -51t42 -28.5t43 -13.5t38.5 -2.5l37 2v-193q-27 -4 -64 -4q-35 0 -68 4.5t-77 16t-80.5 36.5t-68.5 61.5t-50 95.5t-18 134v199q0 89 -44 145t-130 68z" />
<glyph unicode="|" horiz-adv-x="540" d="M160 -330v1960h221v-1960h-221z" />
<glyph unicode="}" horiz-adv-x="759" d="M84 -6q14 -2 37 -2q20 0 38.5 2.5t43 13.5t42 28.5t30 51t12.5 78.5v246q0 90 44 161.5t124 96.5v4q-69 25 -118.5 95t-49.5 165v223q0 55 -17.5 92.5t-46 53.5t-52.5 22t-50 6l-37 -2v193q24 2 63 2q42 0 82.5 -5.5t93.5 -27t91.5 -57t66 -101.5t27.5 -155v-177 q0 -87 44.5 -147t129.5 -70v-227q-81 -7 -127.5 -67t-46.5 -146v-199q0 -89 -27.5 -156t-66 -102.5t-91.5 -57t-93.5 -27t-82.5 -5.5l-63 4v193z" />
<glyph unicode="~" horiz-adv-x="1271" d="M127 408q0 187 80 279.5t233 92.5q57 0 104.5 -19t79.5 -46.5t60.5 -55t62 -46.5t70.5 -19q65 0 96 51t31 127h207q0 -186 -80.5 -279.5t-232.5 -93.5q-57 0 -104 19t-79 46.5t-61 54.5t-63 46t-72 19q-62 0 -93.5 -50.5t-31.5 -125.5h-207z" />
<glyph unicode="&#xa1;" horiz-adv-x="548" d="M139 -412l21 1035h227l21 -1035h-269zM147 799v243h252v-243h-252z" />
<glyph unicode="&#xa2;" horiz-adv-x="1200" d="M100 727q0 222 120.5 383t314.5 195v172h176v-172q135 -25 237 -112.5t152 -219.5l-234 -90q-33 82 -93 132t-144 50q-118 0 -192.5 -95t-74.5 -243q0 -154 72 -246t195 -92q83 0 143.5 50t93.5 132l234 -90q-23 -58 -58.5 -110.5t-83 -99t-111.5 -78.5t-136 -41v-177 h-176v177q-194 32 -314.5 192.5t-120.5 382.5z" />
<glyph unicode="&#xa3;" horiz-adv-x="1200" d="M96 0v227h119v410h-88v178h88v248q0 181 132 298.5t335 117.5q98 0 195 -40t170 -108l-150 -180q-40 38 -97 63t-112 25q-91 0 -148 -52.5t-57 -131.5v-240h363v-178h-363v-410h639v-227h-1026z" />
<glyph unicode="&#xa4;" horiz-adv-x="1277" d="M104 326v176h140v133h-140v207h140v612h516q221 0 340 -112.5t119 -309.5q0 -187 -131.5 -293t-339.5 -106h-240v-131h508v-176h-508v-326h-264v326h-140zM508 842h203q115 0 176 57t61 148q0 90 -60 144t-173 54h-207v-403z" />
<glyph unicode="&#xa5;" horiz-adv-x="1200" d="M18 1454h301l191 -389q21 -50 43 -108.5t33 -92.5l12 -33h4q41 121 88 234l191 389h301l-316 -594h201v-155h-281l-53 -99v-67h334v-158h-334v-381h-268v381h-334v158h334v67l-51 99h-283v155h203z" />
<glyph unicode="&#xa7;" horiz-adv-x="980" d="M90 -2l111 176q43 -38 106.5 -64t124.5 -26q92 0 151.5 52.5t59.5 154.5q0 49 -18 117l-138 661h205l146 -704q14 -57 14 -117q0 -166 -111.5 -270.5t-308.5 -104.5q-93 0 -184.5 32.5t-157.5 92.5zM129 1104q0 165 111.5 270t308.5 105q92 0 185 -33.5t157 -93.5 l-117 -166q-44 37 -105 58.5t-118 21.5q-95 0 -153 -47.5t-58 -145.5q0 -47 14 -102l142 -688h-203l-150 704q-14 55 -14 117z" />
<glyph unicode="&#xa8;" horiz-adv-x="1009" d="M217 1591v238h201v-238h-201zM594 1591v238h199v-238h-199z" />
<glyph unicode="&#xa9;" horiz-adv-x="1673" d="M102 727q0 204 98.5 377t267 273t366.5 100q152 0 288.5 -59t235 -159.5t156 -239.5t57.5 -292t-57.5 -292.5t-156 -240t-235 -160t-288.5 -59.5q-198 0 -366.5 100.5t-267 274t-98.5 377.5zM285 727q0 -162 72.5 -296.5t198.5 -212t278 -77.5q155 0 283 77.5t201 212 t73 296.5q0 161 -73 295t-201 211.5t-283 77.5q-114 0 -216 -45.5t-175 -123.5t-115.5 -186.5t-42.5 -228.5zM461 723q0 165 109 282t274 117q112 0 200.5 -58t133.5 -157l-158 -73q-20 48 -67 83t-103 35q-89 0 -145 -66t-56 -163q0 -101 54 -165t147 -64q55 0 100.5 33 t69.5 85l158 -71q-36 -90 -126.5 -153.5t-207.5 -63.5q-166 0 -274.5 116.5t-108.5 282.5z" />
<glyph unicode="&#xaa;" horiz-adv-x="876" d="M139 985q0 225 379 225h19v15q0 106 -119 106q-81 0 -168 -55l-66 121q49 37 120.5 57.5t141.5 20.5q132 0 203.5 -70.5t71.5 -196.5v-411h-172v90h-4q-23 -44 -73.5 -73.5t-113.5 -29.5q-88 0 -153.5 54.5t-65.5 146.5zM141 545v139h586v-139h-586zM324 997 q0 -31 22 -50t60 -19q55 0 92 45t37 102v15h-23q-188 0 -188 -93z" />
<glyph unicode="&#xab;" horiz-adv-x="1224" d="M82 578l336 421h248l-336 -421l336 -420h-248zM543 578l336 421h247l-335 -421l335 -420h-247z" />
<glyph unicode="&#xac;" horiz-adv-x="1277" d="M127 694v201h1001v-602h-210v401h-791z" />
<glyph unicode="&#xad;" horiz-adv-x="884" d="M135 471v227h615v-227h-615z" />
<glyph unicode="&#xae;" horiz-adv-x="1673" d="M102 727q0 204 98.5 377t267 273t366.5 100q152 0 288.5 -59t235 -159.5t156 -239.5t57.5 -292t-57.5 -292.5t-156 -240t-235 -160t-288.5 -59.5q-198 0 -366.5 100.5t-267 274t-98.5 377.5zM285 727q0 -162 72.5 -296.5t198.5 -212t278 -77.5q155 0 283 77.5t201 212 t73 296.5q0 161 -73 295t-201 211.5t-283 77.5q-114 0 -216 -45.5t-175 -123.5t-115.5 -186.5t-42.5 -228.5zM578 356v750h311q112 0 179 -65t67 -173q0 -79 -42.5 -130t-91.5 -64v-4q9 -8 27 -43l141 -271h-192l-125 277h-100v-277h-174zM752 756h96q51 0 79.5 29.5 t28.5 82.5t-28 82t-76 29h-100v-223z" />
<glyph unicode="&#xaf;" horiz-adv-x="1009" d="M238 1604v178h536v-178h-536z" />
<glyph unicode="&#xb0;" horiz-adv-x="860" d="M96 1157q0 133 97.5 228.5t236.5 95.5q138 0 237 -96t99 -228q0 -134 -98.5 -227.5t-237.5 -93.5q-140 0 -237 93t-97 228zM295 1157q0 -57 39 -96t96 -39t97 39t40 96q0 56 -40 95.5t-97 39.5t-96 -39.5t-39 -95.5z" />
<glyph unicode="&#xb1;" horiz-adv-x="1200" d="M51 483v203h445v485h211v-485h442v-203h-442v-483h-211v483h-445zM80 -174h1040v-201h-1040v201z" />
<glyph unicode="&#xb2;" d="M80 950q0 72 23.5 132t61 101t82.5 75.5t90 62t82.5 53.5t61 57.5t23.5 67.5q0 47 -36 77t-89 30q-81 0 -164 -95l-127 113q46 71 128 116.5t173 45.5q129 0 220 -75.5t91 -203.5q0 -69 -29 -126t-72.5 -93t-95 -70t-96.5 -58.5t-76.5 -56.5t-35.5 -67h418v-170h-625 q-8 58 -8 84z" />
<glyph unicode="&#xb3;" d="M66 983l100 137q32 -41 87 -68.5t114 -27.5q62 0 104.5 37t42.5 92t-47.5 86t-112.5 31h-71l-41 92l159 184l52 49v4q-41 -6 -74 -6h-264v172h573v-125l-201 -229q101 -20 162.5 -87t61.5 -173q0 -124 -92 -214.5t-242 -90.5q-89 0 -173.5 35.5t-137.5 101.5z" />
<glyph unicode="&#xb4;" horiz-adv-x="1009" d="M293 1550l156 279h268l-215 -279h-209z" />
<glyph unicode="&#xb5;" horiz-adv-x="1255" d="M160 -410v1454h260v-618q0 -104 35 -158.5t125 -54.5q136 0 214 102.5t78 249.5v479h261v-1044h-250v127l4 66h-6q-4 -9 -11.5 -23.5t-38 -52t-67.5 -66.5t-102.5 -52.5t-141.5 -23.5q-96 0 -147 43h-4q16 -100 16 -170v-258h-225z" />
<glyph unicode="&#xb6;" horiz-adv-x="1282" d="M74 975q0 201 141 340t340 139h625v-227h-437v-1329h-188v596q-199 0 -340 140t-141 341zM870 -102v1216h191v-1216h-191z" />
<glyph unicode="&#xb7;" horiz-adv-x="522" d="M135 467v262h252v-262h-252z" />
<glyph unicode="&#xb8;" horiz-adv-x="1009" d="M332 -268q34 -17 88 -17q90 0 90 58q0 55 -98 55l-43 -4l63 227l119 -26v-15l-23 -100q67 -8 108.5 -47.5t41.5 -108.5q0 -94 -63.5 -137t-157.5 -43q-68 0 -125 14v144z" />
<glyph unicode="&#xb9;" d="M115 1542l231 223h172v-729h187v-170h-570v170h189v424l4 58h-4q-8 -19 -31 -39l-64 -60z" />
<glyph unicode="&#xba;" horiz-adv-x="983" d="M131 1133q0 149 104 245.5t254 96.5q153 0 258 -96.5t105 -245.5q0 -150 -104.5 -248.5t-255.5 -98.5t-256 98.5t-105 248.5zM162 545v139h661v-139h-661zM317 1133q0 -80 51 -131.5t124 -51.5q72 0 122 51.5t50 131.5q0 78 -50 129t-122 51q-73 0 -124 -51t-51 -129z " />
<glyph unicode="&#xbb;" horiz-adv-x="1224" d="M98 158l336 420l-336 421h248l336 -421l-336 -420h-248zM557 158l336 420l-336 421h248l336 -421l-336 -420h-248z" />
<glyph unicode="&#xbc;" horiz-adv-x="2000" d="M96 1233l232 223h172v-729h186v-170h-569v170h188v424l4 57h-4q-8 -19 -31 -39l-63 -59zM545 0l688 1454h188l-686 -1454h-190zM1196 203v131l387 565h221v-528h119v-168h-119v-203h-192v203h-416zM1393 371h219v225q0 24 2 52t4 44l2 17h-4q-24 -56 -53 -97l-170 -237 v-4z" />
<glyph unicode="&#xbd;" horiz-adv-x="1980" d="M94 1233l232 223h172v-729h186v-170h-569v170h188v424l4 57h-4q-8 -19 -31 -39l-63 -59zM547 0l688 1454h188l-686 -1454h-190zM1255 84q0 72 23.5 132t61 101t82.5 75.5t90 62t82.5 53.5t61 57.5t23.5 67.5q0 47 -36 76.5t-89 29.5q-81 0 -163 -94l-127 113 q46 71 128 116.5t173 45.5q129 0 220 -75.5t91 -203.5q0 -69 -29 -126t-72.5 -93t-95.5 -70t-96.5 -58.5t-76.5 -56.5t-36 -67h418v-170h-624q-9 65 -9 84z" />
<glyph unicode="&#xbe;" horiz-adv-x="2027" d="M80 674l100 137q32 -41 87 -68.5t114 -27.5q62 0 104.5 37t42.5 92t-47 86t-112 31h-72l-41 92l160 184l51 49v4q-41 -6 -74 -6h-264v172h573v-125l-200 -229q101 -20 162 -87t61 -173q0 -124 -92 -214.5t-242 -90.5q-89 0 -173.5 35.5t-137.5 101.5zM567 0l688 1454h189 l-686 -1454h-191zM1219 203v131l387 565h221v-528h119v-168h-119v-203h-193v203h-415zM1415 371h219v225q0 24 2 52t4 44l2 17h-4q-24 -56 -53 -97l-170 -237v-4z" />
<glyph unicode="&#xbf;" horiz-adv-x="972" d="M74 -55q0 69 19.5 127.5t51.5 100.5t70 79t76 69.5t70 65t51.5 72t19.5 84.5v80h250v-99q0 -70 -25 -129.5t-62 -98.5t-81 -79.5t-81 -73.5t-62 -78.5t-25 -95.5q0 -72 57 -121t142 -49q113 0 217 86l145 -178q-67 -64 -167.5 -105.5t-217.5 -41.5t-218 44.5t-165.5 134 t-64.5 206.5zM432 799v243h252v-243h-252z" />
<glyph unicode="&#xc0;" horiz-adv-x="1331" d="M16 0l510 1454h279l510 -1454h-271l-124 373h-510l-123 -373h-271zM352 1829h269l155 -279h-211zM475 588h379l-129 389q-11 36 -25.5 92.5t-23.5 94.5l-8 38h-4q-33 -143 -58 -225z" />
<glyph unicode="&#xc1;" horiz-adv-x="1331" d="M16 0l510 1454h279l510 -1454h-271l-124 373h-510l-123 -373h-271zM475 588h379l-129 389q-11 36 -25.5 92.5t-23.5 94.5l-8 38h-4q-33 -143 -58 -225zM553 1550l156 279h268l-215 -279h-209z" />
<glyph unicode="&#xc2;" horiz-adv-x="1331" d="M16 0l510 1454h279l510 -1454h-271l-124 373h-510l-123 -373h-271zM346 1550l189 279h260l190 -279h-215l-102 166h-4l-103 -166h-215zM475 588h379l-129 389q-11 36 -25.5 92.5t-23.5 94.5l-8 38h-4q-33 -143 -58 -225z" />
<glyph unicode="&#xc3;" horiz-adv-x="1331" d="M16 0l510 1454h279l510 -1454h-271l-124 373h-510l-123 -373h-271zM293 1552q0 281 229 281q46 0 86 -21t63 -45.5t52.5 -45.5t56.5 -21q40 0 60 36.5t20 90.5h176q0 -281 -229 -281q-46 0 -86 21t-63 45.5t-52.5 45.5t-56.5 21q-40 0 -59 -35.5t-19 -91.5h-178zM475 588 h379l-129 389q-11 36 -25.5 92.5t-23.5 94.5l-8 38h-4q-33 -143 -58 -225z" />
<glyph unicode="&#xc4;" horiz-adv-x="1331" d="M16 0l510 1454h279l510 -1454h-271l-124 373h-510l-123 -373h-271zM377 1591v238h201v-238h-201zM475 588h379l-129 389q-11 36 -25.5 92.5t-23.5 94.5l-8 38h-4q-33 -143 -58 -225zM754 1591v238h198v-238h-198z" />
<glyph unicode="&#xc5;" horiz-adv-x="1331" d="M16 0l510 1454h279l510 -1454h-271l-124 373h-510l-123 -373h-271zM471 1686q0 75 58 118t137 43q78 0 135 -43t57 -118q0 -74 -57.5 -117t-134.5 -43q-79 0 -137 43t-58 117zM475 588h379l-129 389q-11 36 -25.5 92.5t-23.5 94.5l-8 38h-4q-33 -143 -58 -225zM596 1686 q0 -31 19 -50.5t51 -19.5q31 0 50 19.5t19 50.5q0 32 -19 51.5t-50 19.5t-50.5 -19.5t-19.5 -51.5z" />
<glyph unicode="&#xc6;" horiz-adv-x="1853" d="M4 0l602 1454h1135v-227h-608v-381h489v-228h-489v-391h639v-227h-902v623h-348l-243 -623h-275zM606 838h264v389h-108z" />
<glyph unicode="&#xc7;" horiz-adv-x="1466" d="M92 733q0 209 95 379.5t266.5 268.5t386.5 98q150 0 292 -50t244 -149l-127 -197q-79 68 -186.5 111t-210.5 43q-116 0 -210 -40t-153.5 -109.5t-91.5 -159t-32 -191.5q0 -103 32.5 -196t93 -165.5t154.5 -115.5t209 -43q114 0 225 50t197 134l139 -190 q-217 -221 -534 -234l-15 -67q67 -8 108.5 -47.5t41.5 -108.5q0 -94 -63.5 -137t-157.5 -43q-68 0 -125 14v144q34 -17 88 -17q90 0 90 58q0 55 -98 55l-43 -4l43 156q-198 20 -348.5 123.5t-230 267t-79.5 362.5z" />
<glyph unicode="&#xc8;" horiz-adv-x="1163" d="M176 0v1454h871v-227h-607v-381h490v-228h-490v-391h639v-227h-903zM319 1829h269l155 -279h-211z" />
<glyph unicode="&#xc9;" horiz-adv-x="1163" d="M176 0v1454h871v-227h-607v-381h490v-228h-490v-391h639v-227h-903zM518 1550l156 279h268l-215 -279h-209z" />
<glyph unicode="&#xca;" horiz-adv-x="1163" d="M176 0v1454h871v-227h-607v-381h490v-228h-490v-391h639v-227h-903zM311 1550l189 279h260l190 -279h-215l-102 166h-4l-103 -166h-215z" />
<glyph unicode="&#xcb;" horiz-adv-x="1163" d="M176 0v1454h871v-227h-607v-381h490v-228h-490v-391h639v-227h-903zM344 1591v238h201v-238h-201zM721 1591v238h199v-238h-199z" />
<glyph unicode="&#xcc;" horiz-adv-x="616" d="M-2 1829h268l156 -279h-211zM176 0v1454h264v-1454h-264z" />
<glyph unicode="&#xcd;" horiz-adv-x="616" d="M176 0v1454h264v-1454h-264zM199 1550l155 279h269l-215 -279h-209z" />
<glyph unicode="&#xce;" horiz-adv-x="616" d="M-8 1550l188 279h260l191 -279h-215l-103 166h-4l-102 -166h-215zM176 0v1454h264v-1454h-264z" />
<glyph unicode="&#xcf;" horiz-adv-x="616" d="M23 1591v238h200v-238h-200zM176 0v1454h264v-1454h-264zM399 1591v238h199v-238h-199z" />
<glyph unicode="&#xd0;" horiz-adv-x="1521" d="M70 616v215h118v623h496q340 0 540.5 -192t200.5 -533t-200.5 -535t-540.5 -194h-496v616h-118zM451 227h219q225 0 354 130t129 372q0 239 -130 368.5t-353 129.5h-219v-396h270v-215h-270v-389z" />
<glyph unicode="&#xd1;" horiz-adv-x="1542" d="M176 0v1454h264l551 -840q24 -38 54 -94.5t49 -93.5l18 -37h4q-14 139 -14 225v840h262v-1454h-262l-551 838q-24 38 -54.5 94.5t-48.5 93.5l-18 37h-4q14 -139 14 -225v-838h-264zM399 1552q0 281 230 281q46 0 86 -21t63 -45.5t52.5 -45.5t56.5 -21q40 0 60 36.5 t20 90.5h176q0 -281 -230 -281q-46 0 -86 21t-63 45.5t-52.5 45.5t-56.5 21q-40 0 -58.5 -35.5t-18.5 -91.5h-179z" />
<glyph unicode="&#xd2;" horiz-adv-x="1683" d="M90 737q0 206 95.5 375.5t268 268t388.5 98.5t388.5 -98.5t267.5 -268t95 -375.5q0 -212 -95 -386t-267.5 -275t-388.5 -101t-388.5 101t-268 275t-95.5 386zM362 737q0 -223 136 -371.5t344 -148.5t343.5 148.5t135.5 371.5q0 214 -135.5 357t-343.5 143t-344 -143 t-136 -357zM528 1829h269l155 -279h-211z" />
<glyph unicode="&#xd3;" horiz-adv-x="1683" d="M90 737q0 206 95.5 375.5t268 268t388.5 98.5t388.5 -98.5t267.5 -268t95 -375.5q0 -212 -95 -386t-267.5 -275t-388.5 -101t-388.5 101t-268 275t-95.5 386zM362 737q0 -223 136 -371.5t344 -148.5t343.5 148.5t135.5 371.5q0 214 -135.5 357t-343.5 143t-344 -143 t-136 -357zM729 1550l156 279h268l-215 -279h-209z" />
<glyph unicode="&#xd4;" horiz-adv-x="1683" d="M90 737q0 206 95.5 375.5t268 268t388.5 98.5t388.5 -98.5t267.5 -268t95 -375.5q0 -212 -95 -386t-267.5 -275t-388.5 -101t-388.5 101t-268 275t-95.5 386zM362 737q0 -223 136 -371.5t344 -148.5t343.5 148.5t135.5 371.5q0 214 -135.5 357t-343.5 143t-344 -143 t-136 -357zM522 1550l189 279h260l190 -279h-215l-102 166h-4l-103 -166h-215z" />
<glyph unicode="&#xd5;" horiz-adv-x="1683" d="M90 737q0 206 95.5 375.5t268 268t388.5 98.5t388.5 -98.5t267.5 -268t95 -375.5q0 -212 -95 -386t-267.5 -275t-388.5 -101t-388.5 101t-268 275t-95.5 386zM362 737q0 -223 136 -371.5t344 -148.5t343.5 148.5t135.5 371.5q0 214 -135.5 357t-343.5 143t-344 -143 t-136 -357zM469 1552q0 281 229 281q46 0 86 -21t63 -45.5t52.5 -45.5t56.5 -21q40 0 60 36.5t20 90.5h176q0 -281 -229 -281q-46 0 -86 21t-63 45.5t-52.5 45.5t-56.5 21q-40 0 -59 -35.5t-19 -91.5h-178z" />
<glyph unicode="&#xd6;" horiz-adv-x="1683" d="M90 737q0 206 95.5 375.5t268 268t388.5 98.5t388.5 -98.5t267.5 -268t95 -375.5q0 -212 -95 -386t-267.5 -275t-388.5 -101t-388.5 101t-268 275t-95.5 386zM362 737q0 -223 136 -371.5t344 -148.5t343.5 148.5t135.5 371.5q0 214 -135.5 357t-343.5 143t-344 -143 t-136 -357zM553 1591v238h201v-238h-201zM930 1591v238h198v-238h-198z" />
<glyph unicode="&#xd7;" horiz-adv-x="1200" d="M57 141l404 445l-404 442l144 143l397 -436l399 436l144 -143l-406 -442l406 -445l-144 -141l-399 436l-397 -436z" />
<glyph unicode="&#xd8;" horiz-adv-x="1681" d="M90 735q0 154 58 292t157.5 237t239 157t297.5 58q196 0 372 -95l91 123l116 -80l-88 -122q122 -103 191 -250.5t69 -319.5q0 -157 -57.5 -298t-157 -242.5t-239 -160.5t-297.5 -59q-215 0 -391 107l-97 -135l-116 80l98 139q-116 104 -181 252t-65 317zM362 735 q0 -207 130 -354l573 797q-105 59 -223 59q-201 0 -340.5 -143.5t-139.5 -358.5zM598 287q112 -70 244 -70q201 0 340 148.5t139 369.5q0 106 -37 198t-104 159z" />
<glyph unicode="&#xd9;" horiz-adv-x="1490" d="M160 522v932h264v-930q0 -146 86.5 -226.5t234.5 -80.5t235 80.5t87 226.5v930h264v-932q0 -245 -160.5 -396t-422.5 -151q-264 0 -426 151t-162 396zM432 1829h268l156 -279h-211z" />
<glyph unicode="&#xda;" horiz-adv-x="1490" d="M160 522v932h264v-930q0 -146 86.5 -226.5t234.5 -80.5t235 80.5t87 226.5v930h264v-932q0 -245 -160.5 -396t-422.5 -151q-264 0 -426 151t-162 396zM633 1550l155 279h269l-215 -279h-209z" />
<glyph unicode="&#xdb;" horiz-adv-x="1490" d="M160 522v932h264v-930q0 -146 86.5 -226.5t234.5 -80.5t235 80.5t87 226.5v930h264v-932q0 -245 -160.5 -396t-422.5 -151q-264 0 -426 151t-162 396zM426 1550l188 279h260l191 -279h-215l-102 166h-5l-102 -166h-215z" />
<glyph unicode="&#xdc;" horiz-adv-x="1490" d="M160 522v932h264v-930q0 -146 86.5 -226.5t234.5 -80.5t235 80.5t87 226.5v930h264v-932q0 -245 -160.5 -396t-422.5 -151q-264 0 -426 151t-162 396zM457 1591v238h200v-238h-200zM834 1591v238h198v-238h-198z" />
<glyph unicode="&#xdd;" horiz-adv-x="1241" d="M4 1454h299l227 -428q20 -40 42 -89t34 -77l12 -29h5q43 105 88 195l225 428h299l-483 -846v-608h-263v608zM508 1550l156 279h268l-215 -279h-209z" />
<glyph unicode="&#xde;" horiz-adv-x="1261" d="M176 0v1454h264v-235h297q205 0 334 -131.5t129 -342.5q0 -212 -129.5 -344.5t-335.5 -132.5h-295v-268h-264zM440 496h248q115 0 179.5 67t64.5 182q0 114 -64 180t-176 66h-252v-495z" />
<glyph unicode="&#xdf;" horiz-adv-x="1232" d="M139 0v1083q0 124 69.5 216t176 136t229.5 44q178 0 300 -102t122 -255q0 -51 -18.5 -96.5t-45.5 -77.5t-54 -61t-45.5 -61t-18.5 -64t34 -66t82.5 -69t97 -76t82.5 -102.5t34 -133.5q0 -157 -107 -243t-262 -86q-170 0 -276 53v221q112 -53 237 -53q63 0 104.5 30 t41.5 93q0 32 -24.5 64t-61.5 58t-80 59t-80 66t-61.5 80t-24.5 99q0 54 29 106t63 86t63 80t29 90q0 57 -45 98t-123 41q-87 0 -147 -48.5t-60 -143.5v-1065h-260z" />
<glyph unicode="&#xe0;" horiz-adv-x="1099" d="M59 289q0 65 22 118.5t58 91t87.5 66t104.5 45t115.5 27.5t115 14.5t106.5 3.5h45v15q0 97 -54 140.5t-143 43.5q-144 0 -291 -100l-96 186q67 54 181.5 91.5t228.5 37.5q205 0 319.5 -109.5t114.5 -306.5v-653h-242v88q0 19 1.5 38t3.5 28l1 10h-4q-48 -85 -137 -137 t-193 -52q-145 0 -244.5 87.5t-99.5 226.5zM236 1454h268l155 -278h-210zM317 311q0 -56 42 -96.5t116 -40.5q103 0 171.5 86.5t68.5 188.5v28h-45q-46 0 -87.5 -3t-92.5 -13.5t-87 -27.5t-61 -48.5t-25 -73.5z" />
<glyph unicode="&#xe1;" horiz-adv-x="1099" d="M59 289q0 65 22 118.5t58 91t87.5 66t104.5 45t115.5 27.5t115 14.5t106.5 3.5h45v15q0 97 -54 140.5t-143 43.5q-144 0 -291 -100l-96 186q67 54 181.5 91.5t228.5 37.5q205 0 319.5 -109.5t114.5 -306.5v-653h-242v88q0 19 1.5 38t3.5 28l1 10h-4q-48 -85 -137 -137 t-193 -52q-145 0 -244.5 87.5t-99.5 226.5zM317 311q0 -56 42 -96.5t116 -40.5q103 0 171.5 86.5t68.5 188.5v28h-45q-46 0 -87.5 -3t-92.5 -13.5t-87 -27.5t-61 -48.5t-25 -73.5zM432 1176l156 278h268l-215 -278h-209z" />
<glyph unicode="&#xe2;" horiz-adv-x="1099" d="M59 289q0 65 22 118.5t58 91t87.5 66t104.5 45t115.5 27.5t115 14.5t106.5 3.5h45v15q0 97 -54 140.5t-143 43.5q-144 0 -291 -100l-96 186q67 54 181.5 91.5t228.5 37.5q205 0 319.5 -109.5t114.5 -306.5v-653h-242v88q0 19 1.5 38t3.5 28l1 10h-4q-48 -85 -137 -137 t-193 -52q-145 0 -244.5 87.5t-99.5 226.5zM225 1176l189 278h260l190 -278h-215l-102 165h-4l-103 -165h-215zM317 311q0 -56 42 -96.5t116 -40.5q103 0 171.5 86.5t68.5 188.5v28h-45q-46 0 -87.5 -3t-92.5 -13.5t-87 -27.5t-61 -48.5t-25 -73.5z" />
<glyph unicode="&#xe3;" horiz-adv-x="1099" d="M59 289q0 65 22 118.5t58 91t87.5 66t104.5 45t115.5 27.5t115 14.5t106.5 3.5h45v15q0 97 -54 140.5t-143 43.5q-144 0 -291 -100l-96 186q67 54 181.5 91.5t228.5 37.5q205 0 319.5 -109.5t114.5 -306.5v-653h-242v88q0 19 1.5 38t3.5 28l1 10h-4q-48 -85 -137 -137 t-193 -52q-145 0 -244.5 87.5t-99.5 226.5zM174 1178q0 280 229 280q46 0 86 -21t63.5 -45.5t53 -45.5t56.5 -21q40 0 59.5 36t19.5 91h177q0 -281 -230 -281q-46 0 -86 21t-63 46t-52.5 46t-56.5 21q-40 0 -59 -35.5t-19 -91.5h-178zM317 311q0 -56 42 -96.5t116 -40.5 q103 0 171.5 86.5t68.5 188.5v28h-45q-46 0 -87.5 -3t-92.5 -13.5t-87 -27.5t-61 -48.5t-25 -73.5z" />
<glyph unicode="&#xe4;" horiz-adv-x="1099" d="M59 289q0 65 22 118.5t58 91t87.5 66t104.5 45t115.5 27.5t115 14.5t106.5 3.5h45v15q0 97 -54 140.5t-143 43.5q-144 0 -291 -100l-96 186q67 54 181.5 91.5t228.5 37.5q205 0 319.5 -109.5t114.5 -306.5v-653h-242v88q0 19 1.5 38t3.5 28l1 10h-4q-48 -85 -137 -137 t-193 -52q-145 0 -244.5 87.5t-99.5 226.5zM258 1217v237h201v-237h-201zM317 311q0 -56 42 -96.5t116 -40.5q103 0 171.5 86.5t68.5 188.5v28h-45q-46 0 -87.5 -3t-92.5 -13.5t-87 -27.5t-61 -48.5t-25 -73.5zM635 1217v237h199v-237h-199z" />
<glyph unicode="&#xe5;" horiz-adv-x="1099" d="M59 289q0 65 22 118.5t58 91t87.5 66t104.5 45t115.5 27.5t115 14.5t106.5 3.5h45v15q0 97 -54 140.5t-143 43.5q-144 0 -291 -100l-96 186q67 54 181.5 91.5t228.5 37.5q205 0 319.5 -109.5t114.5 -306.5v-653h-242v88q0 19 1.5 38t3.5 28l1 10h-4q-48 -85 -137 -137 t-193 -52q-145 0 -244.5 87.5t-99.5 226.5zM317 311q0 -56 42 -96.5t116 -40.5q103 0 171.5 86.5t68.5 188.5v28h-45q-46 0 -87.5 -3t-92.5 -13.5t-87 -27.5t-61 -48.5t-25 -73.5zM350 1311q0 75 58 118.5t137 43.5q78 0 135 -43.5t57 -118.5q0 -74 -57.5 -117t-134.5 -43 q-79 0 -137 43t-58 117zM475 1311q0 -31 19 -50.5t51 -19.5q31 0 50 19.5t19 50.5q0 32 -19 51.5t-50 19.5t-50.5 -19.5t-19.5 -51.5z" />
<glyph unicode="&#xe6;" horiz-adv-x="1759" d="M59 301q0 69 24.5 124t63 91.5t95 63t109.5 40.5t119 22.5t111 10.5t97 2h35v15q0 184 -203 184q-143 0 -287 -100l-96 184q68 57 180 94t221 37q243 0 340 -154h4q126 154 349 154q212 0 336 -141t124 -357q0 -19 -3 -53.5t-3 -42.5h-714q13 -136 98 -207t209 -71 q79 0 159 30t142 82l100 -184q-73 -67 -190 -108.5t-230 -41.5q-151 0 -261 60.5t-175 169.5h-4q-9 -20 -24.5 -43t-49.5 -58t-75 -61.5t-105.5 -46t-138.5 -19.5q-151 0 -254 87.5t-103 236.5zM322 313q0 -58 40.5 -96.5t118.5 -38.5q101 0 168.5 87t67.5 190v20h-74 q-58 0 -109.5 -7t-102 -23.5t-80 -50.5t-29.5 -81zM969 655h450q-3 96 -60.5 153.5t-139.5 57.5q-99 0 -164.5 -55.5t-85.5 -155.5z" />
<glyph unicode="&#xe7;" horiz-adv-x="1122" d="M76 522q0 149 68.5 273t199.5 199t299 75q113 0 221.5 -39t179.5 -117l-116 -178q-51 51 -123.5 82t-147.5 31q-142 0 -229.5 -93.5t-87.5 -230.5t90 -232t236 -95q81 0 163.5 37t143.5 96l100 -185q-69 -73 -174 -117.5t-223 -50.5l-14 -67q67 -8 108 -47.5t41 -108.5 q0 -94 -63.5 -137t-157.5 -43q-68 0 -125 14v144q34 -17 88 -17q90 0 90 58q0 55 -98 55l-43 -4l43 160q-214 29 -341.5 179t-127.5 359z" />
<glyph unicode="&#xe8;" horiz-adv-x="1148" d="M76 522q0 241 148.5 394t383.5 153q145 0 251.5 -67t159 -178t52.5 -251q0 -34 -8 -100h-719q12 -131 100 -203.5t213 -72.5q158 0 299 114l103 -186q-79 -70 -192.5 -110t-227.5 -40q-168 0 -298 75t-197.5 199t-67.5 273zM293 1454h268l156 -278h-211zM350 651h461 q-1 102 -60 161.5t-149 59.5q-99 0 -166 -60t-86 -161z" />
<glyph unicode="&#xe9;" horiz-adv-x="1148" d="M76 522q0 241 148.5 394t383.5 153q145 0 251.5 -67t159 -178t52.5 -251q0 -34 -8 -100h-719q12 -131 100 -203.5t213 -72.5q158 0 299 114l103 -186q-79 -70 -192.5 -110t-227.5 -40q-168 0 -298 75t-197.5 199t-67.5 273zM350 651h461q-1 102 -60 161.5t-149 59.5 q-99 0 -166 -60t-86 -161zM489 1176l156 278h268l-215 -278h-209z" />
<glyph unicode="&#xea;" horiz-adv-x="1148" d="M76 522q0 241 148.5 394t383.5 153q145 0 251.5 -67t159 -178t52.5 -251q0 -34 -8 -100h-719q12 -131 100 -203.5t213 -72.5q158 0 299 114l103 -186q-79 -70 -192.5 -110t-227.5 -40q-168 0 -298 75t-197.5 199t-67.5 273zM283 1176l188 278h260l191 -278h-215l-103 165 h-4l-102 -165h-215zM350 651h461q-1 102 -60 161.5t-149 59.5q-99 0 -166 -60t-86 -161z" />
<glyph unicode="&#xeb;" horiz-adv-x="1148" d="M76 522q0 241 148.5 394t383.5 153q145 0 251.5 -67t159 -178t52.5 -251q0 -34 -8 -100h-719q12 -131 100 -203.5t213 -72.5q158 0 299 114l103 -186q-79 -70 -192.5 -110t-227.5 -40q-168 0 -298 75t-197.5 199t-67.5 273zM315 1217v237h201v-237h-201zM350 651h461 q-1 102 -60 161.5t-149 59.5q-99 0 -166 -60t-86 -161zM692 1217v237h199v-237h-199z" />
<glyph unicode="&#xec;" horiz-adv-x="538" d="M-41 1454h268l156 -278h-211zM139 0v1044h260v-1044h-260z" />
<glyph unicode="&#xed;" horiz-adv-x="538" d="M139 0v1044h260v-1044h-260zM158 1176l155 278h269l-215 -278h-209z" />
<glyph unicode="&#xee;" horiz-adv-x="538" d="M-49 1176l188 278h260l191 -278h-215l-103 165h-4l-102 -165h-215zM139 0v1044h260v-1044h-260z" />
<glyph unicode="&#xef;" horiz-adv-x="538" d="M-16 1217v237h200v-237h-200zM139 0v1044h260v-1044h-260zM360 1217v237h199v-237h-199z" />
<glyph unicode="&#xf0;" horiz-adv-x="1193" d="M78 485q0 123 55 228t166.5 172t259.5 67q58 0 110.5 -15t75.5 -29l23 -15h4q-56 130 -192 217l-379 -164l-13 154l228 100q-104 51 -236 82l72 205q255 -57 444 -170l301 129l13 -152l-181 -80q281 -246 281 -645q0 -87 -17.5 -169t-58 -160t-100.5 -136.5t-151.5 -93.5 t-204.5 -35q-115 0 -211 43t-158.5 114.5t-96.5 163t-34 189.5zM342 479q0 -117 62.5 -200.5t179.5 -83.5q55 0 100 19.5t75 51.5t50.5 74.5t29.5 88t9 93.5q0 100 -65.5 164t-176.5 64q-127 0 -195.5 -79.5t-68.5 -191.5z" />
<glyph unicode="&#xf1;" horiz-adv-x="1253" d="M139 0v1044h250v-122l-4 -74h4q18 37 47.5 72.5t74 70.5t109.5 56.5t140 21.5q364 0 364 -397v-672h-260v618q0 104 -36 158.5t-128 54.5q-135 0 -218 -98.5t-83 -243.5v-489h-260zM272 1178q0 280 230 280q46 0 86 -21t63 -45.5t52.5 -45.5t56.5 -21q40 0 60 36.5 t20 90.5h176q0 -281 -230 -281q-46 0 -86 21t-63 46t-52.5 46t-56.5 21q-40 0 -58.5 -35.5t-18.5 -91.5h-179z" />
<glyph unicode="&#xf2;" horiz-adv-x="1298" d="M76 522q0 156 77 282t207.5 195.5t286.5 69.5q158 0 289.5 -69.5t209 -195.5t77.5 -282q0 -157 -77.5 -283t-208 -195t-288.5 -69t-288.5 69t-207.5 195t-77 283zM336 1454h268l156 -278h-211zM340 522q0 -143 89.5 -234t219.5 -91q131 0 221.5 91t90.5 234 q0 142 -91 234t-221 92t-219.5 -92t-89.5 -234z" />
<glyph unicode="&#xf3;" horiz-adv-x="1298" d="M76 522q0 156 77 282t207.5 195.5t286.5 69.5q158 0 289.5 -69.5t209 -195.5t77.5 -282q0 -157 -77.5 -283t-208 -195t-288.5 -69t-288.5 69t-207.5 195t-77 283zM340 522q0 -143 89.5 -234t219.5 -91q131 0 221.5 91t90.5 234q0 142 -91 234t-221 92t-219.5 -92 t-89.5 -234zM537 1176l155 278h269l-216 -278h-208z" />
<glyph unicode="&#xf4;" horiz-adv-x="1298" d="M76 522q0 156 77 282t207.5 195.5t286.5 69.5q158 0 289.5 -69.5t209 -195.5t77.5 -282q0 -157 -77.5 -283t-208 -195t-288.5 -69t-288.5 69t-207.5 195t-77 283zM330 1176l188 278h260l191 -278h-215l-103 165h-4l-102 -165h-215zM340 522q0 -143 89.5 -234t219.5 -91 q131 0 221.5 91t90.5 234q0 142 -91 234t-221 92t-219.5 -92t-89.5 -234z" />
<glyph unicode="&#xf5;" horiz-adv-x="1298" d="M76 522q0 156 77 282t207.5 195.5t286.5 69.5q158 0 289.5 -69.5t209 -195.5t77.5 -282q0 -157 -77.5 -283t-208 -195t-288.5 -69t-288.5 69t-207.5 195t-77 283zM276 1178q0 280 230 280q46 0 86 -21t63 -45.5t52.5 -45.5t56.5 -21q40 0 60 36.5t20 90.5h176 q0 -281 -229 -281q-46 0 -86 21t-63.5 46t-53 46t-56.5 21q-40 0 -58.5 -35.5t-18.5 -91.5h-179zM340 522q0 -143 89.5 -234t219.5 -91q131 0 221.5 91t90.5 234q0 142 -91 234t-221 92t-219.5 -92t-89.5 -234z" />
<glyph unicode="&#xf6;" horiz-adv-x="1298" d="M76 522q0 156 77 282t207.5 195.5t286.5 69.5q158 0 289.5 -69.5t209 -195.5t77.5 -282q0 -157 -77.5 -283t-208 -195t-288.5 -69t-288.5 69t-207.5 195t-77 283zM340 522q0 -143 89.5 -234t219.5 -91q131 0 221.5 91t90.5 234q0 142 -91 234t-221 92t-219.5 -92 t-89.5 -234zM360 1217v237h201v-237h-201zM737 1217v237h199v-237h-199z" />
<glyph unicode="&#xf7;" horiz-adv-x="1200" d="M66 483v203h1069v-203h-1069zM481 55v221h236v-221h-236zM481 895v221h236v-221h-236z" />
<glyph unicode="&#xf8;" horiz-adv-x="1300" d="M76 522q0 156 77 282t208 195.5t288 69.5q147 0 273 -63l84 114l112 -78l-82 -110q89 -75 139 -180.5t50 -229.5q0 -158 -77.5 -283.5t-208.5 -194.5t-290 -69q-140 0 -258 56l-84 -119l-112 80l77 110q-93 73 -144.5 181.5t-51.5 238.5zM340 522q0 -129 78 -217l368 510 q-68 33 -137 33q-129 0 -219 -92t-90 -234zM528 221q56 -24 121 -24q131 0 221.5 91t90.5 234q0 117 -70 203z" />
<glyph unicode="&#xf9;" horiz-adv-x="1243" d="M129 373v671h260v-618q0 -104 35.5 -158.5t126.5 -54.5q135 0 214 102.5t79 249.5v479h258v-1044h-250v123l6 72h-4q-41 -88 -139 -154t-223 -66q-363 0 -363 398zM303 1454h268l156 -278h-211z" />
<glyph unicode="&#xfa;" horiz-adv-x="1243" d="M129 373v671h260v-618q0 -104 35.5 -158.5t126.5 -54.5q135 0 214 102.5t79 249.5v479h258v-1044h-250v123l6 72h-4q-41 -88 -139 -154t-223 -66q-363 0 -363 398zM502 1176l155 278h269l-215 -278h-209z" />
<glyph unicode="&#xfb;" horiz-adv-x="1243" d="M129 373v671h260v-618q0 -104 35.5 -158.5t126.5 -54.5q135 0 214 102.5t79 249.5v479h258v-1044h-250v123l6 72h-4q-41 -88 -139 -154t-223 -66q-363 0 -363 398zM295 1176l188 278h260l191 -278h-215l-103 165h-4l-102 -165h-215z" />
<glyph unicode="&#xfc;" horiz-adv-x="1243" d="M129 373v671h260v-618q0 -104 35.5 -158.5t126.5 -54.5q135 0 214 102.5t79 249.5v479h258v-1044h-250v123l6 72h-4q-41 -88 -139 -154t-223 -66q-363 0 -363 398zM328 1217v237h200v-237h-200zM705 1217v237h198v-237h-198z" />
<glyph unicode="&#xfd;" horiz-adv-x="1116" d="M8 1044h293l219 -602q9 -24 18.5 -59.5t15.5 -58.5l5 -23h4q19 82 35 137l205 606h282l-464 -1202q-52 -136 -153 -204t-224 -68q-56 0 -110 17t-80 34l-27 17l86 194q57 -43 114 -43t106 34.5t77 100.5l39 92zM449 1174l155 278h268l-215 -278h-208z" />
<glyph unicode="&#xfe;" horiz-adv-x="1253" d="M139 -410v1864h260v-446l-4 -86h4q46 68 124.5 107.5t183.5 39.5q211 0 340 -154.5t129 -392.5t-132.5 -392.5t-341.5 -154.5q-90 0 -173 36t-130 106h-4q4 -37 4 -90v-437h-260zM391 520q0 -152 72 -238.5t192 -86.5q114 0 186 92t72 235q0 142 -70.5 234t-183.5 92 q-118 0 -193 -79.5t-75 -248.5z" />
<glyph unicode="&#xff;" horiz-adv-x="1116" d="M8 1044h293l219 -602q9 -24 18.5 -59.5t15.5 -58.5l5 -23h4q19 82 35 137l205 606h282l-464 -1202q-52 -136 -153 -204t-224 -68q-56 0 -110 17t-80 34l-27 17l86 194q57 -43 114 -43t106 34.5t77 100.5l39 92zM272 1214v238h201v-238h-201zM649 1214v238h199v-238h-199z " />
<glyph unicode="&#x100;" horiz-adv-x="1331" d="M16 0l510 1454h279l510 -1454h-271l-124 373h-510l-123 -373h-271zM397 1604v178h537v-178h-537zM475 588h379l-129 389q-11 36 -25.5 92.5t-23.5 94.5l-8 38h-4q-33 -143 -58 -225z" />
<glyph unicode="&#x101;" horiz-adv-x="1099" d="M59 289q0 65 22 118.5t58 91t87.5 66t104.5 45t115.5 27.5t115 14.5t106.5 3.5h45v15q0 97 -54 140.5t-143 43.5q-144 0 -291 -100l-96 186q67 54 181.5 91.5t228.5 37.5q205 0 319.5 -109.5t114.5 -306.5v-653h-242v88q0 19 1.5 38t3.5 28l1 10h-4q-48 -85 -137 -137 t-193 -52q-145 0 -244.5 87.5t-99.5 226.5zM279 1229v178h536v-178h-536zM317 311q0 -56 42 -96.5t116 -40.5q103 0 171.5 86.5t68.5 188.5v28h-45q-46 0 -87.5 -3t-92.5 -13.5t-87 -27.5t-61 -48.5t-25 -73.5z" />
<glyph unicode="&#x102;" horiz-adv-x="1331" d="M16 0l510 1454h279l510 -1454h-271l-124 373h-510l-123 -373h-271zM360 1804v25h185v-25q0 -59 35.5 -90t85.5 -31q48 0 83 31.5t35 91.5v23h185v-25q0 -122 -88 -192t-215 -70q-128 0 -217 70t-89 192zM475 588h379l-129 389q-11 36 -25.5 92.5t-23.5 94.5l-8 38h-4 q-33 -143 -58 -225z" />
<glyph unicode="&#x103;" horiz-adv-x="1099" d="M59 289q0 65 22 118.5t58 91t87.5 66t104.5 45t115.5 27.5t115 14.5t106.5 3.5h45v15q0 97 -54 140.5t-143 43.5q-144 0 -291 -100l-96 186q67 54 181.5 91.5t228.5 37.5q205 0 319.5 -109.5t114.5 -306.5v-653h-242v88q0 19 1.5 38t3.5 28l1 10h-4q-48 -85 -137 -137 t-193 -52q-145 0 -244.5 87.5t-99.5 226.5zM240 1430v24h184v-24q0 -59 35.5 -90t85.5 -31q48 0 83.5 31.5t35.5 91.5v22h184v-24q0 -122 -88 -192.5t-215 -70.5q-128 0 -216.5 70.5t-88.5 192.5zM317 311q0 -56 42 -96.5t116 -40.5q103 0 171.5 86.5t68.5 188.5v28h-45 q-46 0 -87.5 -3t-92.5 -13.5t-87 -27.5t-61 -48.5t-25 -73.5z" />
<glyph unicode="&#x104;" horiz-adv-x="1331" d="M16 0l510 1454h279l510 -1454q-115 -97 -115 -160q0 -29 25 -47.5t50 -22.5l25 -3l-63 -193q-5 0 -14 1.5t-35 7.5t-49.5 14t-52.5 23.5t-50 35t-35 49.5t-14 66q0 123 133 229h-76l-124 373h-510l-123 -373h-271zM475 588h379l-129 389q-11 36 -25.5 92.5t-23.5 94.5 l-8 38h-4q-33 -143 -58 -225z" />
<glyph unicode="&#x105;" horiz-adv-x="1099" d="M59 289q0 65 22 118.5t58 91t87.5 66t104.5 45t115.5 27.5t115 14.5t106.5 3.5h45v15q0 97 -54 140.5t-143 43.5q-144 0 -291 -100l-96 186q67 54 181.5 91.5t228.5 37.5q205 0 319.5 -109.5t114.5 -306.5v-653q-117 -94 -117 -160q0 -29 25 -47.5t50 -22.5l25 -3 l-61 -193q-5 0 -14 1.5t-35.5 7.5t-50 14t-53 23.5t-50 35t-35 49.5t-14.5 66q0 120 137 229h-49v88q0 19 1.5 38t3.5 28l1 10h-4q-48 -85 -137 -137t-193 -52q-145 0 -244.5 87.5t-99.5 226.5zM317 311q0 -56 42 -96.5t116 -40.5q103 0 171.5 86.5t68.5 188.5v28h-45 q-46 0 -87.5 -3t-92.5 -13.5t-87 -27.5t-61 -48.5t-25 -73.5z" />
<glyph unicode="&#x106;" horiz-adv-x="1466" d="M92 733q0 209 95 379.5t266.5 268.5t386.5 98q150 0 292 -50t244 -149l-127 -197q-79 68 -186.5 111t-210.5 43q-116 0 -210 -40t-153.5 -109.5t-91.5 -159t-32 -191.5q0 -103 32.5 -196t93 -165.5t154.5 -115.5t209 -43q114 0 225 50t197 134l139 -190 q-232 -236 -571 -236q-224 0 -396.5 100.5t-264 272t-91.5 385.5zM711 1550l155 279h269l-215 -279h-209z" />
<glyph unicode="&#x107;" horiz-adv-x="1122" d="M76 522q0 149 68.5 273t199.5 199t299 75q113 0 221.5 -39t179.5 -117l-116 -178q-51 51 -123.5 82t-147.5 31q-142 0 -229.5 -93.5t-87.5 -230.5t90 -232t236 -95q81 0 163.5 37t143.5 96l100 -185q-74 -78 -189.5 -124t-240.5 -46q-127 0 -234 43t-179.5 117t-113 174 t-40.5 213zM489 1176l156 278h268l-215 -278h-209z" />
<glyph unicode="&#x108;" horiz-adv-x="1466" d="M92 733q0 209 95 379.5t266.5 268.5t386.5 98q150 0 292 -50t244 -149l-127 -197q-79 68 -186.5 111t-210.5 43q-116 0 -210 -40t-153.5 -109.5t-91.5 -159t-32 -191.5q0 -103 32.5 -196t93 -165.5t154.5 -115.5t209 -43q114 0 225 50t197 134l139 -190 q-232 -236 -571 -236q-224 0 -396.5 100.5t-264 272t-91.5 385.5zM504 1550l188 279h260l191 -279h-215l-103 166h-4l-102 -166h-215z" />
<glyph unicode="&#x109;" horiz-adv-x="1122" d="M76 522q0 149 68.5 273t199.5 199t299 75q113 0 221.5 -39t179.5 -117l-116 -178q-51 51 -123.5 82t-147.5 31q-142 0 -229.5 -93.5t-87.5 -230.5t90 -232t236 -95q81 0 163.5 37t143.5 96l100 -185q-74 -78 -189.5 -124t-240.5 -46q-127 0 -234 43t-179.5 117t-113 174 t-40.5 213zM283 1176l188 278h260l191 -278h-215l-103 165h-4l-102 -165h-215z" />
<glyph unicode="&#x10a;" horiz-adv-x="1466" d="M92 733q0 209 95 379.5t266.5 268.5t386.5 98q150 0 292 -50t244 -149l-127 -197q-79 68 -186.5 111t-210.5 43q-116 0 -210 -40t-153.5 -109.5t-91.5 -159t-32 -191.5q0 -103 32.5 -196t93 -165.5t154.5 -115.5t209 -43q114 0 225 50t197 134l139 -190 q-232 -236 -571 -236q-224 0 -396.5 100.5t-264 272t-91.5 385.5zM713 1602v227h221v-227h-221z" />
<glyph unicode="&#x10b;" horiz-adv-x="1122" d="M76 522q0 149 68.5 273t199.5 199t299 75q113 0 221.5 -39t179.5 -117l-116 -178q-51 51 -123.5 82t-147.5 31q-142 0 -229.5 -93.5t-87.5 -230.5t90 -232t236 -95q81 0 163.5 37t143.5 96l100 -185q-74 -78 -189.5 -124t-240.5 -46q-127 0 -234 43t-179.5 117t-113 174 t-40.5 213zM494 1227v227h221v-227h-221z" />
<glyph unicode="&#x10c;" horiz-adv-x="1466" d="M92 733q0 209 95 379.5t266.5 268.5t386.5 98q150 0 292 -50t244 -149l-127 -197q-79 68 -186.5 111t-210.5 43q-116 0 -210 -40t-153.5 -109.5t-91.5 -159t-32 -191.5q0 -103 32.5 -196t93 -165.5t154.5 -115.5t209 -43q114 0 225 50t197 134l139 -190 q-232 -236 -571 -236q-224 0 -396.5 100.5t-264 272t-91.5 385.5zM504 1829h215l102 -166h4l103 166h215l-191 -279h-260z" />
<glyph unicode="&#x10d;" horiz-adv-x="1122" d="M76 522q0 149 68.5 273t199.5 199t299 75q113 0 221.5 -39t179.5 -117l-116 -178q-51 51 -123.5 82t-147.5 31q-142 0 -229.5 -93.5t-87.5 -230.5t90 -232t236 -95q81 0 163.5 37t143.5 96l100 -185q-74 -78 -189.5 -124t-240.5 -46q-127 0 -234 43t-179.5 117t-113 174 t-40.5 213zM283 1454h215l102 -166h4l103 166h215l-191 -278h-260z" />
<glyph unicode="&#x10e;" horiz-adv-x="1509" d="M176 0v1454h496q340 0 540.5 -192t200.5 -533t-200.5 -535t-540.5 -194h-496zM381 1829h215l102 -166h4l103 166h215l-191 -279h-260zM440 227h217q225 0 354.5 130t129.5 372q0 239 -130.5 368.5t-353.5 129.5h-217v-1000z" />
<glyph unicode="&#x10f;" horiz-adv-x="1284" d="M80 522q0 247 132 397t341 150q92 0 174 -34.5t131 -102.5h4q-4 26 -4 61v461h258v-1454h-244v90l5 66h-5q-47 -82 -133.5 -131.5t-195.5 -49.5q-210 0 -336.5 151.5t-126.5 395.5zM342 522q0 -148 72 -237.5t188 -89.5q111 0 186.5 83t75.5 246q0 132 -68 227t-192 95 q-111 0 -186.5 -87t-75.5 -237zM1208 1143q41 108 41 178q0 66 -24 131h215q14 -57 14 -111q0 -89 -53 -198h-193z" />
<glyph unicode="&#x110;" horiz-adv-x="1521" d="M70 616v215h118v623h496q340 0 540.5 -192t200.5 -533t-200.5 -535t-540.5 -194h-496v616h-118zM451 227h219q225 0 354 130t129 372q0 239 -130 368.5t-353 129.5h-219v-396h270v-215h-270v-389z" />
<glyph unicode="&#x111;" horiz-adv-x="1257" d="M80 522q0 247 132 397t341 150q90 0 173 -33.5t130 -99.5h4q-2 26 -2 59v150h-264v155h264v154h258v-154h148v-155h-148v-1145h-244v86l2 68h-4q-51 -85 -136 -132t-191 -47q-210 0 -336.5 151.5t-126.5 395.5zM342 522q0 -148 72 -237.5t188 -89.5q111 0 186.5 83 t75.5 246q0 132 -68 227t-192 95q-111 0 -186.5 -87t-75.5 -237z" />
<glyph unicode="&#x112;" horiz-adv-x="1163" d="M176 0v1454h871v-227h-607v-381h490v-228h-490v-391h639v-227h-903zM365 1604v178h536v-178h-536z" />
<glyph unicode="&#x113;" horiz-adv-x="1148" d="M76 522q0 241 148.5 394t383.5 153q145 0 251.5 -67t159 -178t52.5 -251q0 -34 -8 -100h-719q12 -131 100 -203.5t213 -72.5q158 0 299 114l103 -186q-79 -70 -192.5 -110t-227.5 -40q-168 0 -298 75t-197.5 199t-67.5 273zM336 1229v178h536v-178h-536zM350 651h461 q-1 102 -60 161.5t-149 59.5q-99 0 -166 -60t-86 -161z" />
<glyph unicode="&#x114;" horiz-adv-x="1163" d="M176 0v1454h871v-227h-607v-381h490v-228h-490v-391h639v-227h-903zM326 1804v25h184v-25q0 -59 35.5 -90t85.5 -31q48 0 83.5 31.5t35.5 91.5v23h184v-25q0 -122 -88 -192t-215 -70q-128 0 -216.5 70t-88.5 192z" />
<glyph unicode="&#x115;" horiz-adv-x="1148" d="M76 522q0 241 148.5 394t383.5 153q145 0 251.5 -67t159 -178t52.5 -251q0 -34 -8 -100h-719q12 -131 100 -203.5t213 -72.5q158 0 299 114l103 -186q-79 -70 -192.5 -110t-227.5 -40q-168 0 -298 75t-197.5 199t-67.5 273zM297 1430v24h184v-24q0 -59 35.5 -90t85.5 -31 q48 0 83.5 31.5t35.5 91.5v22h184v-24q0 -122 -88 -192.5t-215 -70.5q-128 0 -216.5 70.5t-88.5 192.5zM350 651h461q-1 102 -60 161.5t-149 59.5q-99 0 -166 -60t-86 -161z" />
<glyph unicode="&#x116;" horiz-adv-x="1163" d="M176 0v1454h871v-227h-607v-381h490v-228h-490v-391h639v-227h-903zM520 1602v227h221v-227h-221z" />
<glyph unicode="&#x117;" horiz-adv-x="1148" d="M76 522q0 241 148.5 394t383.5 153q145 0 251.5 -67t159 -178t52.5 -251q0 -34 -8 -100h-719q12 -131 100 -203.5t213 -72.5q158 0 299 114l103 -186q-79 -70 -192.5 -110t-227.5 -40q-168 0 -298 75t-197.5 199t-67.5 273zM350 651h461q-1 102 -60 161.5t-149 59.5 q-99 0 -166 -60t-86 -161zM492 1227v227h221v-227h-221z" />
<glyph unicode="&#x118;" horiz-adv-x="1163" d="M176 0v1454h871v-227h-607v-381h490v-228h-490v-391h639v-227q-114 -96 -114 -160q0 -29 25 -47.5t50 -22.5l25 -3l-64 -193q-5 0 -14 1.5t-35 7.5t-49.5 14t-52 23.5t-49.5 35t-35 49.5t-14 66q0 121 143 229h-719z" />
<glyph unicode="&#x119;" horiz-adv-x="1148" d="M76 522q0 241 148.5 394t383.5 153q145 0 251.5 -67t159 -178t52.5 -251l-8 -100h-719q12 -131 100 -203.5t213 -72.5q158 0 299 114l101 -184q-20 -20 -68.5 -57.5t-85.5 -67t-67.5 -74t-30.5 -88.5q0 -29 24.5 -47.5t48.5 -22.5l25 -3l-61 -193q-5 0 -14 1.5t-35.5 7.5 t-50 14t-53 23.5t-50 35t-35 49.5t-14.5 66q0 112 129 213q-56 -9 -80 -9q-168 0 -298 75t-197.5 199t-67.5 273zM350 651h461q-1 100 -59 160.5t-150 60.5q-99 0 -166 -61t-86 -160z" />
<glyph unicode="&#x11a;" horiz-adv-x="1163" d="M176 0v1454h871v-227h-607v-381h490v-228h-490v-391h639v-227h-903zM311 1829h215l103 -166h4l102 166h215l-190 -279h-260z" />
<glyph unicode="&#x11b;" horiz-adv-x="1148" d="M76 522q0 241 148.5 394t383.5 153q145 0 251.5 -67t159 -178t52.5 -251q0 -34 -8 -100h-719q12 -131 100 -203.5t213 -72.5q158 0 299 114l103 -186q-79 -70 -192.5 -110t-227.5 -40q-168 0 -298 75t-197.5 199t-67.5 273zM283 1454h215l102 -166h4l103 166h215 l-191 -278h-260zM350 651h461q-1 102 -60 161.5t-149 59.5q-99 0 -166 -60t-86 -161z" />
<glyph unicode="&#x11c;" horiz-adv-x="1568" d="M92 729q0 156 57 295t155.5 239t238.5 158t299 58q150 0 291 -46t249 -139l-131 -196q-68 60 -176.5 99.5t-210.5 39.5q-119 0 -215 -40t-157.5 -109t-94 -159t-32.5 -192q0 -115 38 -213t103.5 -165t155 -104.5t190.5 -37.5q99 0 195.5 41t169.5 111v170h-224v227h461 v-766h-225v70l2 61h-4q-72 -70 -185.5 -113t-236.5 -43q-143 0 -273 54.5t-227.5 150.5t-155 239t-57.5 310zM500 1550l188 279h260l191 -279h-215l-103 166h-4l-102 -166h-215z" />
<glyph unicode="&#x11d;" horiz-adv-x="1241" d="M82 549q0 146 51.5 262t157.5 187t252 71q94 0 177.5 -34t133.5 -103h6q-4 13 -4 29v83h246v-981q0 -104 -31.5 -188.5t-84 -140t-124 -93.5t-149.5 -54.5t-162 -16.5q-96 0 -195 24.5t-178 65.5l80 199q139 -68 289 -68q131 0 213 61.5t82 192.5v66l4 55h-4 q-97 -146 -293 -146q-145 0 -252.5 73t-161 191.5t-53.5 264.5zM285 1176l188 278h260l191 -278h-215l-103 165h-4l-102 -165h-215zM344 557q0 -141 69 -229t193 -88q49 0 90 15.5t76.5 49t55.5 95.5t20 147q0 301 -258 301q-117 0 -181.5 -78.5t-64.5 -212.5z" />
<glyph unicode="&#x11e;" horiz-adv-x="1568" d="M92 729q0 156 57 295t155.5 239t238.5 158t299 58q150 0 291 -46t249 -139l-131 -196q-68 60 -176.5 99.5t-210.5 39.5q-119 0 -215 -40t-157.5 -109t-94 -159t-32.5 -192q0 -115 38 -213t103.5 -165t155 -104.5t190.5 -37.5q99 0 195.5 41t169.5 111v170h-224v227h461 v-766h-225v70l2 61h-4q-72 -70 -185.5 -113t-236.5 -43q-143 0 -273 54.5t-227.5 150.5t-155 239t-57.5 310zM516 1804v25h184v-25q0 -59 35.5 -90t85.5 -31q48 0 83.5 31.5t35.5 91.5v23h184v-25q0 -122 -88 -192t-215 -70q-128 0 -216.5 70t-88.5 192z" />
<glyph unicode="&#x11f;" horiz-adv-x="1241" d="M82 549q0 146 51.5 262t157.5 187t252 71q94 0 177.5 -34t133.5 -103h6q-4 13 -4 29v83h246v-981q0 -104 -31.5 -188.5t-84 -140t-124 -93.5t-149.5 -54.5t-162 -16.5q-96 0 -195 24.5t-178 65.5l80 199q139 -68 289 -68q131 0 213 61.5t82 192.5v66l4 55h-4 q-97 -146 -293 -146q-145 0 -252.5 73t-161 191.5t-53.5 264.5zM299 1430v24h184v-24q0 -59 35.5 -90t85.5 -31q48 0 83.5 31.5t35.5 91.5v22h184v-24q0 -122 -88 -192.5t-215 -70.5q-128 0 -216.5 70.5t-88.5 192.5zM344 557q0 -141 69 -229t193 -88q49 0 90 15.5t76.5 49 t55.5 95.5t20 147q0 301 -258 301q-117 0 -181.5 -78.5t-64.5 -212.5z" />
<glyph unicode="&#x120;" horiz-adv-x="1568" d="M92 729q0 156 57 295t155.5 239t238.5 158t299 58q150 0 291 -46t249 -139l-131 -196q-68 60 -176.5 99.5t-210.5 39.5q-119 0 -215 -40t-157.5 -109t-94 -159t-32.5 -192q0 -115 38 -213t103.5 -165t155 -104.5t190.5 -37.5q99 0 195.5 41t169.5 111v170h-224v227h461 v-766h-225v70l2 61h-4q-72 -70 -185.5 -113t-236.5 -43q-143 0 -273 54.5t-227.5 150.5t-155 239t-57.5 310zM711 1602v227h221v-227h-221z" />
<glyph unicode="&#x121;" horiz-adv-x="1241" d="M82 549q0 146 51.5 262t157.5 187t252 71q94 0 177.5 -34t133.5 -103h6q-4 13 -4 29v83h246v-981q0 -104 -31.5 -188.5t-84 -140t-124 -93.5t-149.5 -54.5t-162 -16.5q-96 0 -195 24.5t-178 65.5l80 199q139 -68 289 -68q131 0 213 61.5t82 192.5v66l4 55h-4 q-97 -146 -293 -146q-145 0 -252.5 73t-161 191.5t-53.5 264.5zM344 557q0 -141 69 -229t193 -88q49 0 90 15.5t76.5 49t55.5 95.5t20 147q0 301 -258 301q-117 0 -181.5 -78.5t-64.5 -212.5zM494 1227v227h221v-227h-221z" />
<glyph unicode="&#x122;" horiz-adv-x="1568" d="M92 729q0 156 57 295t155.5 239t238.5 158t299 58q150 0 291 -46t249 -139l-131 -196q-68 60 -176.5 99.5t-210.5 39.5q-119 0 -215 -40t-157.5 -109t-94 -159t-32.5 -192q0 -115 38 -213t103.5 -165t155 -104.5t190.5 -37.5q99 0 195.5 41t169.5 111v170h-224v227h461 v-766h-225v70l2 61h-4q-72 -70 -185.5 -113t-236.5 -43q-143 0 -273 54.5t-227.5 150.5t-155 239t-57.5 310zM676 -422q41 108 41 178q0 63 -25 131h215q15 -61 15 -110q0 -88 -54 -199h-192z" />
<glyph unicode="&#x123;" horiz-adv-x="1241" d="M82 549q0 146 51.5 262t157.5 187t252 71q94 0 177.5 -34t133.5 -103h6q-4 13 -4 29v83h246v-981q0 -104 -31.5 -188.5t-84 -140t-124 -93.5t-149.5 -54.5t-162 -16.5q-96 0 -195 24.5t-178 65.5l80 199q139 -68 289 -68q131 0 213 61.5t82 192.5v66l4 55h-4 q-97 -146 -293 -146q-145 0 -252.5 73t-161 191.5t-53.5 264.5zM344 557q0 -141 69 -229t193 -88q49 0 90 15.5t76.5 49t55.5 95.5t20 147q0 301 -258 301q-117 0 -181.5 -78.5t-64.5 -212.5zM487 1257q0 87 54 195h190q-39 -107 -39 -174q0 -62 25 -127h-215 q-15 59 -15 106z" />
<glyph unicode="&#x124;" horiz-adv-x="1544" d="M176 0v1454h264v-616h666v616h262v-1454h-262v610h-666v-610h-264zM453 1550l188 279h260l191 -279h-215l-103 166h-4l-102 -166h-215z" />
<glyph unicode="&#x125;" horiz-adv-x="1253" d="M-47 1550l188 279h260l191 -279h-215l-103 166h-4l-102 -166h-215zM139 0v1454h260v-508q0 -23 -1.5 -45t-3.5 -33l-1 -10h4q43 84 140.5 147.5t222.5 63.5q364 0 364 -397v-672h-260v618q0 104 -36 158.5t-128 54.5q-135 0 -218 -97.5t-83 -248.5v-485h-260z" />
<glyph unicode="&#x126;" horiz-adv-x="1558" d="M55 1055v170h135v229h269v-229h641v229h268v-229h133v-170h-133v-1055h-268v610h-641v-610h-269v1055h-135zM459 838h641v217h-641v-217z" />
<glyph unicode="&#x127;" horiz-adv-x="1253" d="M4 1145v155h135v154h260v-154h275v-155h-275v-195l-4 -88h4q43 84 139 145.5t222 61.5q364 0 364 -397v-672h-260v618q0 104 -36 158.5t-128 54.5q-137 0 -219 -99.5t-82 -242.5v-489h-260v1145h-135z" />
<glyph unicode="&#x128;" horiz-adv-x="616" d="M-61 1552q0 281 229 281q46 0 86 -21t63 -45.5t52.5 -45.5t56.5 -21q40 0 60 36.5t20 90.5h176q0 -281 -229 -281q-46 0 -86 21t-63 45.5t-52.5 45.5t-56.5 21q-40 0 -59 -35.5t-19 -91.5h-178zM176 0v1454h264v-1454h-264z" />
<glyph unicode="&#x129;" horiz-adv-x="538" d="M-100 1178q0 280 229 280q46 0 86 -21t63 -45.5t52.5 -45.5t56.5 -21q40 0 60 36.5t20 90.5h176q0 -281 -229 -281q-46 0 -86 21t-63 46t-52.5 46t-56.5 21q-40 0 -59 -35.5t-19 -91.5h-178zM139 0v1044h260v-1044h-260z" />
<glyph unicode="&#x12a;" horiz-adv-x="616" d="M43 1604v178h537v-178h-537zM176 0v1454h264v-1454h-264z" />
<glyph unicode="&#x12b;" horiz-adv-x="538" d="M4 1229v178h537v-178h-537zM139 0v1044h260v-1044h-260z" />
<glyph unicode="&#x12c;" horiz-adv-x="616" d="M6 1804v25h184v-25q0 -59 35.5 -90t85.5 -31q48 0 83.5 31.5t35.5 91.5v23h184v-25q0 -122 -88 -192t-215 -70q-128 0 -216.5 70t-88.5 192zM176 0v1454h264v-1454h-264z" />
<glyph unicode="&#x12d;" horiz-adv-x="538" d="M-33 1430v24h185v-24q0 -59 35 -90t85 -31q48 0 83.5 31.5t35.5 91.5v22h184v-24q0 -122 -88 -192.5t-215 -70.5q-128 0 -216.5 70.5t-88.5 192.5zM139 0v1044h260v-1044h-260z" />
<glyph unicode="&#x12e;" horiz-adv-x="616" d="M111 -229q0 119 137 229h-72v1454h264v-1454q-114 -96 -114 -160q0 -29 24.5 -47.5t49.5 -22.5l24 -3l-62 -193q-5 0 -14 1.5t-35 7.5t-50 14t-53 23.5t-49.5 35t-35 49.5t-14.5 66z" />
<glyph unicode="&#x12f;" horiz-adv-x="540" d="M72 -227q0 113 137 227h-70v1044h260v-1044q-114 -96 -114 -160q0 -29 25 -47.5t50 -22.5l25 -3l-61 -193q-10 1 -27 3.5t-60.5 15.5t-77 32.5t-60.5 58.5t-27 89zM139 1223v231h260v-231h-260z" />
<glyph unicode="&#x130;" horiz-adv-x="616" d="M176 0v1454h264v-1454h-264zM201 1602v227h221v-227h-221z" />
<glyph unicode="&#x131;" horiz-adv-x="538" d="M139 0v1044h260v-1044h-260z" />
<glyph unicode="&#x132;" horiz-adv-x="1304" d="M176 0v1454h264v-1454h-264zM608 -8v239q35 0 68.5 6.5t70.5 25.5t64 49.5t45 83t18 120.5v938h269v-942q0 -126 -33 -221t-84.5 -150.5t-125 -90.5t-143 -46.5t-149.5 -11.5z" />
<glyph unicode="&#x133;" horiz-adv-x="1077" d="M139 0v1044h260v-1044h-260zM139 1223v231h260v-231h-260zM424 -199q24 -4 45 -4q26 0 50.5 3.5t54.5 15.5t52 32t37 56.5t15 85.5v1054h260v-1075q0 -100 -32.5 -175t-79 -115t-110 -65t-113 -31.5t-101.5 -6.5q-38 0 -78 6v219zM678 1223v231h260v-231h-260z" />
<glyph unicode="&#x134;" horiz-adv-x="1118" d="M49 430v84h262v-68q0 -99 47 -164t144 -65q83 0 136.5 53.5t53.5 163.5v793h-377v227h639v-1024q0 -114 -39 -204t-104 -143t-144 -80.5t-165 -27.5q-69 0 -133.5 17t-123 53.5t-102 89t-69 128.5t-25.5 167zM309 1550l189 279h260l190 -279h-215l-102 166h-4l-103 -166 h-215z" />
<glyph unicode="&#x135;" horiz-adv-x="538" d="M-115 -199q24 -4 45 -4q26 0 50.5 3.5t54.5 15.5t52 32t37 56.5t15 85.5v1054h260v-1075q0 -100 -32.5 -175t-79 -115t-110 -65t-113 -31.5t-101.5 -6.5q-37 0 -78 6v219zM-41 1174l188 280h240l188 -280h-202l-103 167h-4l-104 -167h-203z" />
<glyph unicode="&#x136;" horiz-adv-x="1306" d="M176 0v1454h264v-592h189l342 592h286l-411 -692v-4l436 -758h-299l-354 635h-189v-635h-264zM541 -422q41 108 41 178q0 63 -25 131h215q14 -57 14 -110q0 -90 -53 -199h-192z" />
<glyph unicode="&#x137;" horiz-adv-x="1124" d="M139 0v1454h260v-778h129l252 368h289l-330 -466v-5l371 -573h-299l-276 457h-136v-457h-260zM455 -422q41 108 41 178q0 63 -25 131h215q14 -57 14 -110q0 -90 -53 -199h-192z" />
<glyph unicode="&#x138;" horiz-adv-x="1120" d="M139 0v1044h260v-393h127l265 393h290l-342 -489v-4l357 -551h-305l-259 432h-133v-432h-260z" />
<glyph unicode="&#x139;" horiz-adv-x="1097" d="M176 0v1454h264v-1227h629v-227h-893zM199 1550l155 279h269l-215 -279h-209z" />
<glyph unicode="&#x13a;" horiz-adv-x="589" d="M139 326v1128h258v-1089q0 -82 26 -113t81 -31q25 0 39 2v-227q-54 -6 -82 -6q-49 0 -89 6t-85.5 26.5t-76 55.5t-51 98.5t-20.5 149.5zM160 1550l155 279h269l-215 -279h-209z" />
<glyph unicode="&#x13b;" horiz-adv-x="1097" d="M176 0v1454h264v-1227h629v-227h-893zM504 -422q41 108 41 178q0 63 -25 131h215q15 -61 15 -110q0 -88 -54 -199h-192z" />
<glyph unicode="&#x13c;" horiz-adv-x="589" d="M139 326v1128h258v-1089q0 -82 26 -113t81 -31q25 0 39 2v-227q-54 -6 -82 -6q-49 0 -89 6t-85.5 26.5t-76 55.5t-51 98.5t-20.5 149.5zM217 -422q41 108 41 178q0 63 -25 131h216q14 -57 14 -110q0 -90 -53 -199h-193z" />
<glyph unicode="&#x13d;" horiz-adv-x="1099" d="M176 0v1454h264v-1227h629v-227h-893zM586 1143q41 108 41 178q0 63 -25 131h215q14 -57 14 -111q0 -89 -53 -198h-192z" />
<glyph unicode="&#x13e;" horiz-adv-x="616" d="M139 326v1128h258v-1089q0 -82 26 -113t81 -31q25 0 39 2v-227q-54 -6 -82 -6q-49 0 -89 6t-85.5 26.5t-76 55.5t-51 98.5t-20.5 149.5zM492 1143q40 106 40 178q0 66 -24 131h215q14 -57 14 -111q0 -89 -53 -198h-192z" />
<glyph unicode="&#x13f;" horiz-adv-x="1101" d="M176 0v1454h264v-1227h629v-227h-893zM659 657v263h252v-263h-252z" />
<glyph unicode="&#x140;" horiz-adv-x="825" d="M139 326v1128h258v-1089q0 -82 26 -113t81 -31q25 0 39 2v-227q-54 -6 -82 -6q-49 0 -89 6t-85.5 26.5t-76 55.5t-51 98.5t-20.5 149.5zM553 657v263h252v-263h-252z" />
<glyph unicode="&#x141;" horiz-adv-x="1107" d="M70 473v254l116 66v661h263v-510l217 125v-254l-217 -125v-463h628v-227h-891v539z" />
<glyph unicode="&#x142;" horiz-adv-x="624" d="M35 500v254l131 73v627h258v-477l160 92v-254l-160 -92v-358q0 -82 26 -113t80 -31l39 2v-227q-37 -6 -82 -6q-49 0 -89 6t-85.5 26.5t-75.5 55.5t-50.5 98.5t-20.5 149.5v247z" />
<glyph unicode="&#x143;" horiz-adv-x="1542" d="M176 0v1454h264l551 -840q24 -38 54 -94.5t49 -93.5l18 -37h4q-14 139 -14 225v840h262v-1454h-262l-551 838q-24 38 -54.5 94.5t-48.5 93.5l-18 37h-4q14 -139 14 -225v-838h-264zM657 1550l156 279h268l-215 -279h-209z" />
<glyph unicode="&#x144;" horiz-adv-x="1253" d="M139 0v1044h250v-122l-4 -74h4q18 37 47.5 72.5t74 70.5t109.5 56.5t140 21.5q364 0 364 -397v-672h-260v618q0 104 -36 158.5t-128 54.5q-135 0 -218 -98.5t-83 -243.5v-489h-260zM530 1176l156 278h268l-215 -278h-209z" />
<glyph unicode="&#x145;" horiz-adv-x="1542" d="M176 0v1454h264l551 -840q24 -38 54 -94.5t49 -93.5l18 -37h4q-14 139 -14 225v840h262v-1454h-262l-551 838q-24 38 -54.5 94.5t-48.5 93.5l-18 37h-4q14 -139 14 -225v-838h-264zM641 -422q41 108 41 178q0 63 -25 131h215q15 -61 15 -110q0 -90 -53 -199h-193z" />
<glyph unicode="&#x146;" horiz-adv-x="1253" d="M139 0v1044h250v-122l-4 -74h4q18 37 47.5 72.5t74 70.5t109.5 56.5t140 21.5q364 0 364 -397v-672h-260v618q0 104 -36 158.5t-128 54.5q-135 0 -218 -98.5t-83 -243.5v-489h-260zM498 -422q41 108 41 178q0 63 -25 131h215q14 -57 14 -110q0 -90 -53 -199h-192z" />
<glyph unicode="&#x147;" horiz-adv-x="1542" d="M176 0v1454h264l551 -840q24 -38 54 -94.5t49 -93.5l18 -37h4q-14 139 -14 225v840h262v-1454h-262l-551 838q-24 38 -54.5 94.5t-48.5 93.5l-18 37h-4q14 -139 14 -225v-838h-264zM451 1829h215l102 -166h4l102 166h216l-191 -279h-260z" />
<glyph unicode="&#x148;" horiz-adv-x="1253" d="M139 0v1044h250v-122l-4 -74h4q18 37 47.5 72.5t74 70.5t109.5 56.5t140 21.5q364 0 364 -397v-672h-260v618q0 104 -36 158.5t-128 54.5q-135 0 -218 -98.5t-83 -243.5v-489h-260zM324 1454h215l102 -166h4l103 166h215l-191 -278h-260z" />
<glyph unicode="&#x149;" horiz-adv-x="1253" d="M-41 1143q41 108 41 178q0 63 -25 131h215q15 -62 15 -111q0 -89 -53 -198h-193zM139 0v1044h250v-122l-4 -74h4q18 37 47.5 72.5t74 70.5t109.5 56.5t140 21.5q364 0 364 -397v-672h-260v618q0 104 -36 158.5t-128 54.5q-135 0 -218 -98.5t-83 -243.5v-489h-260z" />
<glyph unicode="&#x14a;" horiz-adv-x="1540" d="M176 0v1454h264l551 -840q24 -38 54 -94.5t49 -93.5l18 -37h4q-14 139 -14 225v840h262v-1366q0 -118 -32 -209.5t-83 -147t-122 -90.5t-141 -48t-148 -13v240q36 0 75 11t78 33t67 61.5t34 90.5l-541 822q-24 38 -54.5 94.5t-48.5 93.5l-18 37h-4q14 -139 14 -225v-838 h-264z" />
<glyph unicode="&#x14b;" horiz-adv-x="1253" d="M139 0v1044h250v-147l-2 -45h4q19 37 48 71.5t73 69t108.5 55.5t139.5 21q364 0 364 -397v-707q0 -100 -32.5 -175t-79 -115t-110 -65t-113 -31.5t-101.5 -6.5q-21 0 -41 1.5t-29 2.5l-10 2v219q18 -2 45 -2q26 0 50.5 3.5t55 15t52.5 31.5t37.5 56t15.5 85v632 q0 104 -36 158.5t-128 54.5q-138 0 -219.5 -99t-81.5 -243v-489h-260z" />
<glyph unicode="&#x14c;" horiz-adv-x="1683" d="M90 737q0 206 95.5 375.5t268 268t388.5 98.5t388.5 -98.5t267.5 -268t95 -375.5q0 -212 -95 -386t-267.5 -275t-388.5 -101t-388.5 101t-268 275t-95.5 386zM362 737q0 -223 136 -371.5t344 -148.5t343.5 148.5t135.5 371.5q0 214 -135.5 357t-343.5 143t-344 -143 t-136 -357zM573 1604v178h537v-178h-537z" />
<glyph unicode="&#x14d;" horiz-adv-x="1298" d="M76 522q0 156 77 282t207.5 195.5t286.5 69.5q158 0 289.5 -69.5t209 -195.5t77.5 -282q0 -157 -77.5 -283t-208 -195t-288.5 -69t-288.5 69t-207.5 195t-77 283zM340 522q0 -143 89.5 -234t219.5 -91q131 0 221.5 91t90.5 234q0 142 -91 234t-221 92t-219.5 -92 t-89.5 -234zM381 1229v178h537v-178h-537z" />
<glyph unicode="&#x14e;" horiz-adv-x="1683" d="M90 737q0 206 95.5 375.5t268 268t388.5 98.5t388.5 -98.5t267.5 -268t95 -375.5q0 -212 -95 -386t-267.5 -275t-388.5 -101t-388.5 101t-268 275t-95.5 386zM362 737q0 -223 136 -371.5t344 -148.5t343.5 148.5t135.5 371.5q0 214 -135.5 357t-343.5 143t-344 -143 t-136 -357zM537 1804v25h184v-25q0 -59 35.5 -90t85.5 -31q48 0 83.5 31.5t35.5 91.5v23h184v-25q0 -122 -88 -192t-215 -70q-128 0 -216.5 70t-88.5 192z" />
<glyph unicode="&#x14f;" horiz-adv-x="1298" d="M76 522q0 156 77 282t207.5 195.5t286.5 69.5q158 0 289.5 -69.5t209 -195.5t77.5 -282q0 -157 -77.5 -283t-208 -195t-288.5 -69t-288.5 69t-207.5 195t-77 283zM340 522q0 -143 89.5 -234t219.5 -91q131 0 221.5 91t90.5 234q0 142 -91 234t-221 92t-219.5 -92 t-89.5 -234zM344 1430v24h184v-24q0 -59 35.5 -90t85.5 -31q48 0 83.5 31.5t35.5 91.5v22h184v-24q0 -122 -88 -192.5t-215 -70.5q-128 0 -216.5 70.5t-88.5 192.5z" />
<glyph unicode="&#x150;" horiz-adv-x="1683" d="M90 737q0 206 95.5 375.5t268 268t388.5 98.5t388.5 -98.5t267.5 -268t95 -375.5q0 -212 -95 -386t-267.5 -275t-388.5 -101t-388.5 101t-268 275t-95.5 386zM362 737q0 -223 136 -371.5t344 -148.5t343.5 148.5t135.5 371.5q0 214 -135.5 357t-343.5 143t-344 -143 t-136 -357zM530 1550l146 279h221l-152 -279h-215zM889 1550l155 279h256l-213 -279h-198z" />
<glyph unicode="&#x151;" horiz-adv-x="1298" d="M76 522q0 156 77 282t207.5 195.5t286.5 69.5q158 0 289.5 -69.5t209 -195.5t77.5 -282q0 -157 -77.5 -283t-208 -195t-288.5 -69t-288.5 69t-207.5 195t-77 283zM338 1176l145 278h222l-152 -278h-215zM340 522q0 -143 89.5 -234t219.5 -91q131 0 221.5 91t90.5 234 q0 142 -91 234t-221 92t-219.5 -92t-89.5 -234zM696 1176l156 278h256l-213 -278h-199z" />
<glyph unicode="&#x152;" horiz-adv-x="1984" d="M90 729q0 154 59.5 291.5t161 236t243 156t300.5 57.5q62 0 142 -8t116 -8h758v-227h-608v-381h491v-228h-491v-391h641v-227h-791q-34 0 -115 -9t-143 -9q-159 0 -300.5 58.5t-243 158t-161 238t-59.5 292.5zM362 729q0 -220 139.5 -370t352.5 -150q37 0 73.5 4t54.5 8 l17 4v1004q-61 16 -145 16q-141 0 -254 -69t-175.5 -187t-62.5 -260z" />
<glyph unicode="&#x153;" horiz-adv-x="2031" d="M76 520q0 160 76.5 286.5t205 194.5t283.5 68q279 0 432 -215h4q135 215 412 215q146 0 252.5 -67t158.5 -178t52 -251l-6 -100h-719q14 -131 102 -203.5t209 -72.5q160 0 301 114l100 -186q-79 -70 -191.5 -110t-227.5 -40q-292 0 -437 222h-4q-156 -222 -438 -222 q-156 0 -284 66.5t-204.5 192t-76.5 286.5zM338 520q0 -145 89.5 -234t219.5 -89q132 0 221.5 89t89.5 236q0 145 -91 235.5t-220 90.5t-219 -91t-90 -237zM1233 651h457q-3 97 -60 157t-143 60q-101 0 -168 -59t-86 -158z" />
<glyph unicode="&#x154;" horiz-adv-x="1310" d="M176 0v1454h479q187 0 275 -39q115 -47 180.5 -149.5t65.5 -247.5q0 -132 -65.5 -242t-178.5 -155v-5q18 -22 47 -75l299 -541h-297l-287 543h-254v-543h-264zM440 772h238q106 0 167.5 62.5t61.5 169.5q0 151 -114 198q-58 25 -160 25h-193v-455zM522 1550l156 279h268 l-215 -279h-209z" />
<glyph unicode="&#x155;" horiz-adv-x="811" d="M139 0v1044h250v-184l-4 -72h4q37 115 127.5 193t204.5 78q17 0 49 -4v-256q-20 4 -63 4q-77 0 -137.5 -31.5t-97 -85.5t-55 -121t-18.5 -143v-422h-260zM367 1174l155 278h269l-216 -278h-208z" />
<glyph unicode="&#x156;" horiz-adv-x="1310" d="M176 0v1454h479q187 0 275 -39q115 -47 180.5 -149.5t65.5 -247.5q0 -132 -65.5 -242t-178.5 -155v-5q18 -22 47 -75l299 -541h-297l-287 543h-254v-543h-264zM440 772h238q106 0 167.5 62.5t61.5 169.5q0 151 -114 198q-58 25 -160 25h-193v-455zM547 -422 q41 108 41 178q0 63 -25 131h215q15 -61 15 -110q0 -88 -54 -199h-192z" />
<glyph unicode="&#x157;" horiz-adv-x="811" d="M139 0v1044h250v-184l-4 -72h4q37 115 127.5 193t204.5 78q17 0 49 -4v-256q-20 4 -63 4q-77 0 -137.5 -31.5t-97 -85.5t-55 -121t-18.5 -143v-422h-260zM143 -422q41 108 41 178q0 66 -24 131h215q14 -57 14 -110q0 -90 -53 -199h-193z" />
<glyph unicode="&#x158;" horiz-adv-x="1310" d="M176 0v1454h479q187 0 275 -39q115 -47 180.5 -149.5t65.5 -247.5q0 -132 -65.5 -242t-178.5 -155v-5q18 -22 47 -75l299 -541h-297l-287 543h-254v-543h-264zM315 1829h215l103 -166h4l102 166h215l-190 -279h-260zM440 772h238q106 0 167.5 62.5t61.5 169.5 q0 151 -114 198q-58 25 -160 25h-193v-455z" />
<glyph unicode="&#x159;" horiz-adv-x="811" d="M139 0v1044h250v-184l-4 -72h4q37 115 127.5 193t204.5 78q17 0 49 -4v-256q-20 4 -63 4q-77 0 -137.5 -31.5t-97 -85.5t-55 -121t-18.5 -143v-422h-260zM162 1452h215l102 -166h4l103 166h215l-191 -278h-260z" />
<glyph unicode="&#x15a;" horiz-adv-x="1140" d="M72 174l143 199q71 -65 168 -109.5t192 -44.5q97 0 155 46t58 120q0 49 -29 89.5t-76.5 68t-108.5 57t-124.5 55t-124.5 63.5t-108.5 81.5t-76.5 110t-29 147.5q0 189 140 305.5t355 116.5q117 0 229.5 -40t196.5 -116l-117 -215q-62 56 -148.5 91.5t-170.5 35.5 q-100 0 -160.5 -45.5t-60.5 -120.5q0 -54 37.5 -96.5t97 -72.5t132 -59t145 -65.5t132 -82.5t97 -119.5t37.5 -167.5q0 -185 -129.5 -308t-354.5 -123q-138 0 -269.5 51.5t-227.5 147.5zM459 1550l155 279h269l-215 -279h-209z" />
<glyph unicode="&#x15b;" horiz-adv-x="935" d="M55 129l117 172q58 -54 138 -84.5t159 -30.5q69 0 107 27.5t38 77.5q0 33 -28.5 59t-74.5 45.5t-101 39.5t-110 46.5t-101 61t-74.5 89t-28.5 124.5q0 148 114 230.5t286 82.5q216 0 352 -119l-96 -182q-45 39 -120 64.5t-145 25.5q-69 0 -107 -25.5t-38 -74.5 q0 -33 28.5 -59.5t74.5 -45.5t101 -38t110 -45.5t101 -60t74.5 -88t28.5 -124.5q0 -140 -109 -231t-286 -91q-113 0 -222 39.5t-188 114.5zM348 1176l156 278h268l-215 -278h-209z" />
<glyph unicode="&#x15c;" horiz-adv-x="1140" d="M72 174l143 199q71 -65 168 -109.5t192 -44.5q97 0 155 46t58 120q0 49 -29 89.5t-76.5 68t-108.5 57t-124.5 55t-124.5 63.5t-108.5 81.5t-76.5 110t-29 147.5q0 189 140 305.5t355 116.5q117 0 229.5 -40t196.5 -116l-117 -215q-62 56 -148.5 91.5t-170.5 35.5 q-100 0 -160.5 -45.5t-60.5 -120.5q0 -54 37.5 -96.5t97 -72.5t132 -59t145 -65.5t132 -82.5t97 -119.5t37.5 -167.5q0 -185 -129.5 -308t-354.5 -123q-138 0 -269.5 51.5t-227.5 147.5zM254 1550l188 279h260l191 -279h-215l-103 166h-4l-102 -166h-215z" />
<glyph unicode="&#x15d;" horiz-adv-x="935" d="M55 129l117 172q58 -54 138 -84.5t159 -30.5q69 0 107 27.5t38 77.5q0 33 -28.5 59t-74.5 45.5t-101 39.5t-110 46.5t-101 61t-74.5 89t-28.5 124.5q0 148 114 230.5t286 82.5q216 0 352 -119l-96 -182q-45 39 -120 64.5t-145 25.5q-69 0 -107 -25.5t-38 -74.5 q0 -33 28.5 -59.5t74.5 -45.5t101 -38t110 -45.5t101 -60t74.5 -88t28.5 -124.5q0 -140 -109 -231t-286 -91q-113 0 -222 39.5t-188 114.5zM145 1176l189 278h260l190 -278h-215l-102 165h-4l-103 -165h-215z" />
<glyph unicode="&#x15e;" horiz-adv-x="1142" d="M72 174l143 199q71 -65 168 -109.5t192 -44.5q97 0 155 46t58 120q0 49 -29 89.5t-76.5 68t-108.5 57t-124.5 55t-124.5 63.5t-108.5 81.5t-76.5 110t-29 147.5q0 189 140 305.5t355 116.5q117 0 229.5 -40t196.5 -116l-117 -215q-62 56 -148.5 91.5t-170.5 35.5 q-100 0 -160.5 -45.5t-60.5 -120.5q0 -54 37.5 -96.5t97 -72.5t132 -59t145 -65.5t132 -82.5t97 -119.5t37.5 -167.5q0 -169 -110.5 -288.5t-305.5 -137.5l-14 -70q67 -8 108 -47.5t41 -108.5q0 -94 -63.5 -137t-157.5 -43q-68 0 -125 14v144q34 -17 88 -17q90 0 90 58 q0 55 -98 55l-43 -4l43 156q-124 11 -237 60t-197 134z" />
<glyph unicode="&#x15f;" horiz-adv-x="940" d="M57 129l117 172q58 -54 138 -84.5t159 -30.5q69 0 107 27.5t38 77.5q0 33 -28.5 59t-74.5 45.5t-101 39.5t-110 46.5t-101 61t-74.5 89t-28.5 124.5q0 148 114 230.5t286 82.5q216 0 352 -119l-96 -182q-45 39 -120 64.5t-145 25.5q-69 0 -107 -25.5t-38 -74.5 q0 -33 28.5 -59.5t74.5 -45.5t101 -38t110 -45.5t101 -60t74.5 -88t28.5 -124.5q0 -129 -93 -217t-249 -103l-14 -67q67 -8 108 -47.5t41 -108.5q0 -94 -63.5 -137t-157.5 -43q-68 0 -125 14v144q34 -17 88 -17q90 0 90 58q0 55 -98 55l-43 -4l43 156q-204 24 -332 149z" />
<glyph unicode="&#x160;" horiz-adv-x="1140" d="M72 174l143 199q71 -65 168 -109.5t192 -44.5q97 0 155 46t58 120q0 49 -29 89.5t-76.5 68t-108.5 57t-124.5 55t-124.5 63.5t-108.5 81.5t-76.5 110t-29 147.5q0 189 140 305.5t355 116.5q117 0 229.5 -40t196.5 -116l-117 -215q-62 56 -148.5 91.5t-170.5 35.5 q-100 0 -160.5 -45.5t-60.5 -120.5q0 -54 37.5 -96.5t97 -72.5t132 -59t145 -65.5t132 -82.5t97 -119.5t37.5 -167.5q0 -185 -129.5 -308t-354.5 -123q-138 0 -269.5 51.5t-227.5 147.5zM254 1829h215l102 -166h4l103 166h215l-191 -279h-260z" />
<glyph unicode="&#x161;" horiz-adv-x="935" d="M55 129l117 172q58 -54 138 -84.5t159 -30.5q69 0 107 27.5t38 77.5q0 33 -28.5 59t-74.5 45.5t-101 39.5t-110 46.5t-101 61t-74.5 89t-28.5 124.5q0 148 114 230.5t286 82.5q216 0 352 -119l-96 -182q-45 39 -120 64.5t-145 25.5q-69 0 -107 -25.5t-38 -74.5 q0 -33 28.5 -59.5t74.5 -45.5t101 -38t110 -45.5t101 -60t74.5 -88t28.5 -124.5q0 -140 -109 -231t-286 -91q-113 0 -222 39.5t-188 114.5zM145 1454h215l103 -166h4l102 166h215l-190 -278h-260z" />
<glyph unicode="&#x162;" horiz-adv-x="1273" d="M29 1227v227h1216v-227h-477v-1227h-70l-20 -90q67 -8 108 -47.5t41 -108.5q0 -94 -63.5 -137t-157.5 -43q-68 0 -125 14v144q34 -17 88 -17q90 0 90 58q0 55 -98 55l-43 -4l49 176h-61v1227h-477z" />
<glyph unicode="&#x163;" horiz-adv-x="763" d="M55 823v207h142v299h254v-299h237v-207h-237v-407q0 -49 15 -86t36.5 -57.5t51 -33.5t54 -16.5t49.5 -3.5q28 0 48 4v-227q-60 -6 -80 -6q-57 0 -127 12l-21 -92q67 -8 108.5 -47.5t41.5 -108.5q0 -94 -63.5 -137t-157.5 -43q-68 0 -125 14v144q34 -17 88 -17q90 0 90 58 q0 55 -99 55l-43 -4l60 217q-187 95 -187 342v440h-135z" />
<glyph unicode="&#x164;" horiz-adv-x="1273" d="M29 1227v227h1216v-227h-477v-1227h-262v1227h-477zM315 1829h215l103 -166h4l102 166h215l-190 -279h-260z" />
<glyph unicode="&#x165;" horiz-adv-x="763" d="M55 823v207h142v299h254v-299h237v-207h-237v-407q0 -49 15 -86t36.5 -57.5t51 -33.5t54 -16.5t49.5 -3.5q28 0 48 4v-227q-60 -6 -80 -6q-36 0 -70.5 3t-79 13.5t-83 27.5t-77 47.5t-65 70.5t-43.5 99.5t-17 131.5v440h-135zM541 1155q41 103 41 172q0 60 -25 125h215 q14 -55 14 -106q0 -85 -53 -191h-192z" />
<glyph unicode="&#x166;" horiz-adv-x="1294" d="M39 1227v227h1216v-227h-477v-426h320v-197h-320v-604h-262v604h-309v197h309v426h-477z" />
<glyph unicode="&#x167;" horiz-adv-x="772" d="M45 489v173h152v161h-136v207h142v299h252v-299h237v-207h-237v-161h223v-173h-223v-86q0 -56 21.5 -95.5t56.5 -57t66 -24.5t65 -7l47 4v-227q-33 -6 -80 -6q-36 0 -70.5 3t-79.5 13.5t-83 27.5t-76 47.5t-65 70.5t-43.5 99.5t-16.5 131.5v106h-152z" />
<glyph unicode="&#x168;" horiz-adv-x="1490" d="M160 522v932h264v-930q0 -146 86.5 -226.5t234.5 -80.5t235 80.5t87 226.5v930h264v-932q0 -245 -160.5 -396t-422.5 -151q-264 0 -426 151t-162 396zM373 1552q0 281 229 281q46 0 86 -21t63 -45.5t52.5 -45.5t56.5 -21q40 0 60 36.5t20 90.5h176q0 -281 -229 -281 q-46 0 -86 21t-63 45.5t-52.5 45.5t-56.5 21q-40 0 -59 -35.5t-19 -91.5h-178z" />
<glyph unicode="&#x169;" horiz-adv-x="1243" d="M129 373v671h260v-618q0 -104 35.5 -158.5t126.5 -54.5q135 0 214 102.5t79 249.5v479h258v-1044h-250v123l6 72h-4q-41 -88 -139 -154t-223 -66q-363 0 -363 398zM244 1178q0 280 229 280q46 0 86 -21t63 -45.5t52.5 -45.5t56.5 -21q40 0 60 36.5t20 90.5h176 q0 -281 -229 -281q-46 0 -86 21t-63 46t-52.5 46t-56.5 21q-40 0 -59 -35.5t-19 -91.5h-178z" />
<glyph unicode="&#x16a;" horiz-adv-x="1490" d="M160 522v932h264v-930q0 -146 86.5 -226.5t234.5 -80.5t235 80.5t87 226.5v930h264v-932q0 -245 -160.5 -396t-422.5 -151q-264 0 -426 151t-162 396zM477 1604v178h537v-178h-537z" />
<glyph unicode="&#x16b;" horiz-adv-x="1243" d="M129 373v671h260v-618q0 -104 35.5 -158.5t126.5 -54.5q135 0 214 102.5t79 249.5v479h258v-1044h-250v123l6 72h-4q-41 -88 -139 -154t-223 -66q-363 0 -363 398zM348 1229v178h537v-178h-537z" />
<glyph unicode="&#x16c;" horiz-adv-x="1490" d="M160 522v932h264v-930q0 -146 86.5 -226.5t234.5 -80.5t235 80.5t87 226.5v930h264v-932q0 -245 -160.5 -396t-422.5 -151q-264 0 -426 151t-162 396zM440 1804v25h185v-25q0 -59 35 -90t85 -31q48 0 83.5 31.5t35.5 91.5v23h185v-25q0 -122 -88.5 -192t-215.5 -70 q-128 0 -216.5 70t-88.5 192z" />
<glyph unicode="&#x16d;" horiz-adv-x="1243" d="M129 373v671h260v-618q0 -104 35.5 -158.5t126.5 -54.5q135 0 214 102.5t79 249.5v479h258v-1044h-250v123l6 72h-4q-41 -88 -139 -154t-223 -66q-363 0 -363 398zM311 1430v24h185v-24q0 -59 35 -90t85 -31q48 0 83.5 31.5t35.5 91.5v22h185v-24q0 -122 -88.5 -192.5 t-215.5 -70.5q-128 0 -216.5 70.5t-88.5 192.5z" />
<glyph unicode="&#x16e;" horiz-adv-x="1490" d="M160 522v932h264v-930q0 -146 86.5 -226.5t234.5 -80.5t235 80.5t87 226.5v930h264v-932q0 -245 -160.5 -396t-422.5 -151q-264 0 -426 151t-162 396zM551 1686q0 75 57.5 118t136.5 43q78 0 135.5 -43t57.5 -118q0 -74 -58 -117t-135 -43q-79 0 -136.5 43t-57.5 117z M676 1686q0 -31 18.5 -50.5t50.5 -19.5q31 0 50.5 19.5t19.5 50.5q0 32 -19.5 51.5t-50.5 19.5t-50 -19.5t-19 -51.5z" />
<glyph unicode="&#x16f;" horiz-adv-x="1243" d="M129 373v671h260v-618q0 -104 35.5 -158.5t126.5 -54.5q135 0 214 102.5t79 249.5v479h258v-1044h-250v123l6 72h-4q-41 -88 -139 -154t-223 -66q-363 0 -363 398zM422 1311q0 75 57.5 118.5t136.5 43.5q78 0 135.5 -43.5t57.5 -118.5q0 -74 -58 -117t-135 -43 q-79 0 -136.5 43t-57.5 117zM547 1311q0 -31 18.5 -50.5t50.5 -19.5q31 0 50.5 19.5t19.5 50.5q0 32 -19.5 51.5t-50.5 19.5t-50 -19.5t-19 -51.5z" />
<glyph unicode="&#x170;" horiz-adv-x="1490" d="M160 522v932h264v-930q0 -146 86.5 -226.5t234.5 -80.5t235 80.5t87 226.5v930h264v-932q0 -245 -160.5 -396t-422.5 -151q-264 0 -426 151t-162 396zM434 1550l146 279h221l-152 -279h-215zM793 1550l155 279h256l-213 -279h-198z" />
<glyph unicode="&#x171;" horiz-adv-x="1243" d="M129 373v671h260v-618q0 -104 35.5 -158.5t126.5 -54.5q135 0 214 102.5t79 249.5v479h258v-1044h-250v123l6 72h-4q-41 -88 -139 -154t-223 -66q-363 0 -363 398zM305 1176l146 278h221l-152 -278h-215zM664 1176l155 278h256l-213 -278h-198z" />
<glyph unicode="&#x172;" horiz-adv-x="1492" d="M162 522v932h262v-930q0 -146 87 -226.5t237 -80.5q148 0 234.5 80.5t86.5 226.5v930h262v-932q0 -77 -17 -144t-41 -113.5t-63 -90.5t-71 -70t-78 -59q-9 -6 -29.5 -21t-29.5 -21t-26.5 -19.5t-26 -20.5t-22.5 -19.5t-20.5 -20.5t-15.5 -19.5t-13 -21t-7 -20.5t-3 -22 q0 -29 25 -47.5t51 -22.5l25 -3l-64 -193q-5 0 -14 1.5t-35.5 7.5t-50 14t-53 23.5t-50 35t-35 49.5t-14.5 66q0 59 33.5 114t83.5 92q-23 -2 -39 -2q-109 0 -209.5 35t-181.5 101t-129.5 172.5t-48.5 238.5z" />
<glyph unicode="&#x173;" horiz-adv-x="1243" d="M129 373v671h260v-618q0 -104 35.5 -158.5t126.5 -54.5q135 0 214 102.5t79 249.5v479h258v-1044q-115 -97 -115 -160q0 -29 25 -47.5t50 -22.5l25 -3l-63 -193q-5 0 -14 1.5t-35 7.5t-49.5 14t-52.5 23.5t-50 35t-35 49.5t-14 66q0 120 137 229h-59v123l6 72h-4 q-41 -88 -139 -154t-223 -66q-363 0 -363 398z" />
<glyph unicode="&#x174;" horiz-adv-x="1957" d="M47 1454h277l225 -1005q8 -36 14 -74.5t8 -58.5l2 -21h5q7 70 30 154l260 1005h222l258 -1005q10 -37 17.5 -75.5t10.5 -58.5l2 -20h4q5 72 23 154l242 1005h272l-377 -1454h-297l-227 860q-10 42 -19.5 89.5t-13.5 74.5l-4 27h-6q-14 -97 -39 -191l-225 -860h-301z M664 1550l188 279h260l191 -279h-216l-102 166h-4l-102 -166h-215z" />
<glyph unicode="&#x175;" horiz-adv-x="1701" d="M39 1044h274l183 -686q6 -24 11 -51.5t7 -42.5l2 -16h4q11 55 25 110l192 684h232l192 -684l23 -110h4q6 55 22 110l183 686h270l-317 -1044h-289l-176 596l-27 113h-4q-11 -58 -25 -113l-178 -596h-291zM532 1176l189 278h260l190 -278h-215l-102 165h-4l-102 -165h-216 z" />
<glyph unicode="&#x176;" horiz-adv-x="1241" d="M4 1454h299l227 -428q20 -40 42 -89t34 -77l12 -29h5q43 105 88 195l225 428h299l-483 -846v-608h-263v608zM301 1550l188 279h261l190 -279h-215l-102 166h-5l-102 -166h-215z" />
<glyph unicode="&#x177;" horiz-adv-x="1116" d="M8 1044h293l219 -602q9 -24 18.5 -59.5t15.5 -58.5l5 -23h4q19 82 35 137l205 606h282l-464 -1202q-52 -136 -153 -204t-224 -68q-56 0 -110 17t-80 34l-27 17l86 194q57 -43 114 -43t106 34.5t77 100.5l39 92zM242 1174l188 278h260l191 -278h-215l-103 165h-4 l-102 -165h-215z" />
<glyph unicode="&#x178;" horiz-adv-x="1241" d="M4 1454h299l227 -428q20 -40 42 -89t34 -77l12 -29h5q43 105 88 195l225 428h299l-483 -846v-608h-263v608zM328 1591v238h200v-238h-200zM705 1591v238h198v-238h-198z" />
<glyph unicode="&#x179;" horiz-adv-x="1249" d="M74 0v170l645 926q25 37 51.5 70t40.5 47l14 14v4q-40 -4 -108 -4h-611v227h1051v-168l-645 -928q-25 -37 -51.5 -70t-40.5 -47l-14 -14v-4q40 4 108 4h653v-227h-1093zM535 1550l155 279h268l-215 -279h-208z" />
<glyph unicode="&#x17a;" horiz-adv-x="1073" d="M72 0v139l471 588q21 26 43 50t34 35l11 11v4q-31 -4 -99 -4h-440v221h889v-141l-469 -588q-20 -26 -42.5 -50t-35.5 -35l-12 -11v-4q30 6 98 6h475v-221h-923zM414 1176l155 278h269l-215 -278h-209z" />
<glyph unicode="&#x17b;" horiz-adv-x="1249" d="M74 0v170l645 926q25 37 51.5 70t40.5 47l14 14v4q-40 -4 -108 -4h-611v227h1051v-168l-645 -928q-25 -37 -51.5 -70t-40.5 -47l-14 -14v-4q40 4 108 4h653v-227h-1093zM537 1602v227h221v-227h-221z" />
<glyph unicode="&#x17c;" horiz-adv-x="1073" d="M72 0v139l471 588q21 26 43 50t34 35l11 11v4q-31 -4 -99 -4h-440v221h889v-141l-469 -588q-20 -26 -42.5 -50t-35.5 -35l-12 -11v-4q30 6 98 6h475v-221h-923zM418 1227v227h221v-227h-221z" />
<glyph unicode="&#x17d;" horiz-adv-x="1249" d="M74 0v170l645 926q25 37 51.5 70t40.5 47l14 14v4q-40 -4 -108 -4h-611v227h1051v-168l-645 -928q-25 -37 -51.5 -70t-40.5 -47l-14 -14v-4q40 4 108 4h653v-227h-1093zM328 1829h215l102 -166h4l103 166h215l-191 -279h-260z" />
<glyph unicode="&#x17e;" horiz-adv-x="1073" d="M72 0v139l471 588q21 26 43 50t34 35l11 11v4q-31 -4 -99 -4h-440v221h889v-141l-469 -588q-20 -26 -42.5 -50t-35.5 -35l-12 -11v-4q30 6 98 6h475v-221h-923zM209 1454h215l102 -166h4l103 166h215l-191 -278h-260z" />
<glyph unicode="&#x17f;" horiz-adv-x="638" d="M70 823v207h129v45q0 71 16.5 129t43 97.5t64 69.5t75 46.5t81.5 27t78.5 14t69.5 3.5q24 0 46 -1.5t32 -2.5l10 -2v-221q-22 4 -53 4q-26 0 -50.5 -3.5t-53.5 -14.5t-50 -29t-35 -51t-14 -76v-1065h-260v823h-129z" />
<glyph unicode="&#x192;" horiz-adv-x="1200" d="M63 -4q93 -12 140 -12q25 0 49 3.5t53.5 15t52 31t39.5 55.5t21 83l45 512h-152v207h168l21 199q9 98 46.5 172t85.5 114t112 64.5t114 31.5t103 7q32 0 75.5 -4.5t71.5 -8.5l27 -4v-221q-109 14 -160 14q-26 0 -50 -3.5t-54 -15.5t-52.5 -32t-39.5 -56t-21 -83l-19 -174 h224v-207h-240l-47 -537q-6 -71 -27.5 -129.5t-51 -98t-69.5 -69t-79 -46.5t-83.5 -27.5t-79 -13.5t-69.5 -3q-30 0 -68.5 4t-62.5 8l-23 3v221z" />
<glyph unicode="&#x218;" horiz-adv-x="1140" d="M72 174l143 199q71 -65 168 -109.5t192 -44.5q97 0 155 46t58 120q0 49 -29 89.5t-76.5 68t-108.5 57t-124.5 55t-124.5 63.5t-108.5 81.5t-76.5 110t-29 147.5q0 189 140 305.5t355 116.5q117 0 229.5 -40t196.5 -116l-117 -215q-62 56 -148.5 91.5t-170.5 35.5 q-100 0 -160.5 -45.5t-60.5 -120.5q0 -54 37.5 -96.5t97 -72.5t132 -59t145 -65.5t132 -82.5t97 -119.5t37.5 -167.5q0 -185 -129.5 -308t-354.5 -123q-138 0 -269.5 51.5t-227.5 147.5zM430 -422q41 108 41 178q0 63 -25 131h216q14 -57 14 -110q0 -90 -53 -199h-193z" />
<glyph unicode="&#x219;" horiz-adv-x="935" d="M55 129l117 172q58 -54 138 -84.5t159 -30.5q69 0 107 27.5t38 77.5q0 33 -28.5 59t-74.5 45.5t-101 39.5t-110 46.5t-101 61t-74.5 89t-28.5 124.5q0 148 114 230.5t286 82.5q216 0 352 -119l-96 -182q-45 39 -120 64.5t-145 25.5q-69 0 -107 -25.5t-38 -74.5 q0 -33 28.5 -59.5t74.5 -45.5t101 -38t110 -45.5t101 -60t74.5 -88t28.5 -124.5q0 -140 -109 -231t-286 -91q-113 0 -222 39.5t-188 114.5zM328 -422q41 108 41 178q0 63 -25 131h215q14 -57 14 -110q0 -90 -53 -199h-192z" />
<glyph unicode="&#x21a;" horiz-adv-x="1273" d="M29 1227v227h1216v-227h-477v-1227h-262v1227h-477zM500 -422q41 108 41 178q0 63 -25 131h215q14 -57 14 -110q0 -90 -53 -199h-192z" />
<glyph unicode="&#x21b;" horiz-adv-x="763" d="M55 823v207h142v299h254v-299h237v-207h-237v-407q0 -49 15 -86t36.5 -57.5t51 -33.5t54 -16.5t49.5 -3.5q28 0 48 4v-227q-60 -6 -80 -6q-36 0 -70.5 3t-79 13.5t-83 27.5t-77 47.5t-65 70.5t-43.5 99.5t-17 131.5v440h-135zM319 -422q41 108 41 178q0 66 -24 131h215 q14 -57 14 -110q0 -90 -53 -199h-193z" />
<glyph unicode="&#x2c6;" horiz-adv-x="1011" d="M186 1550l189 279h260l190 -279h-215l-102 166h-4l-103 -166h-215z" />
<glyph unicode="&#x2c7;" horiz-adv-x="1011" d="M186 1829h215l103 -166h4l102 166h215l-190 -279h-260z" />
<glyph unicode="&#x2d8;" horiz-adv-x="1009" d="M201 1804v25h184v-25q0 -59 35.5 -90t85.5 -31q48 0 83.5 31.5t35.5 91.5v23h184v-25q0 -122 -88 -192t-215 -70q-128 0 -216.5 70t-88.5 192z" />
<glyph unicode="&#x2d9;" horiz-adv-x="1011" d="M395 1602v227h221v-227h-221z" />
<glyph unicode="&#x2da;" horiz-adv-x="1011" d="M311 1686q0 75 58 118t137 43q78 0 135 -43t57 -118q0 -74 -57.5 -117t-134.5 -43q-79 0 -137 43t-58 117zM436 1686q0 -31 19 -50.5t51 -19.5q31 0 50 19.5t19 50.5q0 32 -19 51.5t-50 19.5t-50.5 -19.5t-19.5 -51.5z" />
<glyph unicode="&#x2db;" horiz-adv-x="1011" d="M328 -229q0 46 21.5 91.5t52 78t61.5 58.5t53 39l21 13l147 -26q-6 -4 -15.5 -12t-33.5 -31t-43 -44.5t-34 -49t-15 -48.5q0 -29 25 -47.5t50 -22.5l25 -3l-63 -193q-5 0 -14 1.5t-35.5 7.5t-50 14t-53 23.5t-50 35t-35 49.5t-14.5 66z" />
<glyph unicode="&#x2dc;" horiz-adv-x="1009" d="M133 1552q0 281 229 281q46 0 86 -21t63.5 -45.5t53 -45.5t56.5 -21q40 0 59.5 36t19.5 91h177q0 -281 -230 -281q-46 0 -86 21t-63 45.5t-52.5 45.5t-56.5 21q-40 0 -59 -35.5t-19 -91.5h-178z" />
<glyph unicode="&#x2dd;" horiz-adv-x="1009" d="M121 1550l145 279h221l-151 -279h-215zM479 1550l156 279h256l-213 -279h-199z" />
<glyph unicode="&#x400;" horiz-adv-x="1165" d="M176 0v1454h871v-227h-607v-381h490v-228h-490v-391h639v-227h-903zM354 1829h269l155 -279h-211z" />
<glyph unicode="&#x401;" horiz-adv-x="1165" d="M176 0v1454h871v-227h-607v-381h490v-228h-490v-391h639v-227h-903zM336 1591v238h201v-238h-201zM713 1591v238h198v-238h-198z" />
<glyph unicode="&#x402;" horiz-adv-x="1527" d="M29 1227v227h1108v-227h-463v-336l-4 -64h4q58 29 157 53.5t197 24.5q204 0 324.5 -123.5t120.5 -320.5q0 -217 -125.5 -351.5t-333.5 -134.5q-41 0 -99 7v219q32 -4 64 -4q39 0 76.5 12t73.5 38.5t57.5 76t21.5 116.5q0 107 -62.5 169.5t-178.5 62.5q-76 0 -149 -18 t-108 -36l-36 -18v-600h-264v1227h-381z" />
<glyph unicode="&#x403;" horiz-adv-x="1036" d="M176 0v1454h836v-227h-572v-1227h-264zM442 1550l156 279h268l-215 -279h-209z" />
<glyph unicode="&#x404;" horiz-adv-x="1466" d="M92 733q0 208 91 377t263 269t394 100q99 0 190.5 -20.5t152 -49.5t106 -58.5t66.5 -50.5l21 -20l-127 -197q-7 6 -19.5 16.5t-53.5 37.5t-84.5 47.5t-109 37.5t-130.5 17q-195 0 -323.5 -113.5t-155.5 -289.5h696v-215h-696q27 -180 154 -293t327 -113q71 0 141 18 t120 44t89.5 52t59.5 44l20 18l133 -186q-8 -9 -24 -24.5t-71 -55.5t-116.5 -70t-159.5 -55t-202 -25q-218 0 -390.5 100t-267 272.5t-94.5 385.5z" />
<glyph unicode="&#x405;" horiz-adv-x="1140" d="M72 174l143 199q71 -65 168 -109.5t192 -44.5q97 0 155 46t58 120q0 49 -29 89.5t-76.5 68t-108.5 57t-124.5 55t-124.5 63.5t-108.5 81.5t-76.5 110t-29 147.5q0 189 140 305.5t355 116.5q117 0 229.5 -40t196.5 -116l-117 -215q-62 56 -148.5 91.5t-170.5 35.5 q-100 0 -160.5 -45.5t-60.5 -120.5q0 -54 37.5 -96.5t97 -72.5t132 -59t145 -65.5t132 -82.5t97 -119.5t37.5 -167.5q0 -185 -129.5 -308t-354.5 -123q-138 0 -269.5 51.5t-227.5 147.5z" />
<glyph unicode="&#x406;" horiz-adv-x="616" d="M176 0v1454h264v-1454h-264z" />
<glyph unicode="&#x407;" horiz-adv-x="616" d="M23 1591v238h200v-238h-200zM176 0v1454h264v-1454h-264zM399 1591v238h199v-238h-199z" />
<glyph unicode="&#x408;" horiz-adv-x="1118" d="M49 430v84h262v-68q0 -99 47 -164t144 -65q83 0 136.5 53.5t53.5 163.5v793h-377v227h639v-1024q0 -114 -39 -204t-104 -143t-144 -80.5t-165 -27.5q-69 0 -133.5 17t-123 53.5t-102 89t-69 128.5t-25.5 167z" />
<glyph unicode="&#x409;" horiz-adv-x="1986" d="M39 -12v241q165 13 235 192.5t70 575.5v457h862v-571h269q206 0 334 -122t128 -321q0 -197 -128.5 -318.5t-329.5 -121.5h-535v1227h-334v-230q0 -136 -7 -246t-24 -215t-45.5 -184.5t-72 -148t-103 -113t-139.5 -71.5t-180 -31zM1206 227h228q108 0 171.5 57t63.5 156 q0 98 -64.5 156.5t-174.5 58.5h-224v-428z" />
<glyph unicode="&#x40a;" horiz-adv-x="2086" d="M176 0v1454h264v-577h602v577h263v-577h276q202 0 329.5 -121.5t127.5 -317.5q0 -195 -128.5 -316.5t-328.5 -121.5h-539v649h-602v-649h-264zM1305 227h229q108 0 171.5 56.5t63.5 154.5q0 97 -64.5 154t-174.5 57h-225v-422z" />
<glyph unicode="&#x40b;" horiz-adv-x="1531" d="M29 1227v227h1106v-227h-461v-338l-4 -68h4q173 84 358 84q210 0 312 -120t102 -328v-457h-268v418q0 254 -230 254q-79 0 -152 -23.5t-122 -54.5v-594h-264v1227h-381z" />
<glyph unicode="&#x40c;" horiz-adv-x="1306" d="M176 0v1454h264v-592h189l342 592h286l-411 -692v-4l436 -758h-299l-354 635h-189v-635h-264zM567 1550l156 279h268l-215 -279h-209z" />
<glyph unicode="&#x40d;" horiz-adv-x="1542" d="M176 0v1454h264v-840q0 -38 -3.5 -94.5t-6.5 -93.5l-4 -37h4q70 141 123 227l549 838h262v-1454h-262v838q0 38 3.5 94.5t6.5 93.5l4 37h-4q-68 -139 -121 -225l-553 -838h-262zM475 1829h268l156 -279h-211z" />
<glyph unicode="&#x40e;" horiz-adv-x="1253" d="M-6 1454h291l309 -649q21 -43 41.5 -91t30.5 -75l10 -27h4q26 97 59 191l234 651h276l-448 -1149q-20 -52 -41.5 -94.5t-55 -88.5t-71.5 -76.5t-91 -50.5t-114 -20q-145 0 -291 101l117 198q91 -71 164 -71q53 0 86.5 31.5t58.5 95.5zM299 1802v27h199v-27 q0 -62 40.5 -95.5t96.5 -33.5t97.5 34t41.5 97v25h197v-27q0 -130 -98 -206t-238 -76t-238 76t-98 206z" />
<glyph unicode="&#x40f;" horiz-adv-x="1509" d="M176 0v1454h264v-1227h629v1227h264v-1454h-459v-287h-237v287h-461z" />
<glyph unicode="&#x410;" horiz-adv-x="1331" d="M16 0l510 1454h279l510 -1454h-271l-124 373h-510l-123 -373h-271zM475 588h379l-129 389q-11 36 -25.5 92.5t-23.5 94.5l-8 38h-4q-33 -143 -58 -225z" />
<glyph unicode="&#x411;" horiz-adv-x="1261" d="M176 0v1454h893v-227h-629v-336h291q202 0 328.5 -122t126.5 -327q0 -196 -125.5 -319t-323.5 -123h-561zM440 227h250q108 0 168 58t60 157q0 101 -62 161.5t-170 60.5h-246v-437z" />
<glyph unicode="&#x412;" horiz-adv-x="1296" d="M176 0v1454h518q203 0 327 -99.5t124 -275.5q0 -102 -46.5 -184.5t-129.5 -126.5v-4q114 -34 174.5 -129t60.5 -213q0 -106 -40.5 -188.5t-110.5 -132.5t-159 -75.5t-192 -25.5h-526zM440 227h283q99 0 155 58.5t56 152.5q0 93 -56.5 151t-154.5 58h-283v-420zM440 860 h256q84 0 132.5 53t48.5 134t-48.5 130.5t-136.5 49.5h-252v-367z" />
<glyph unicode="&#x413;" horiz-adv-x="1036" d="M176 0v1454h836v-227h-572v-1227h-264z" />
<glyph unicode="&#x414;" horiz-adv-x="1515" d="M14 227h148q65 98 108.5 212.5t65 236.5t29.5 229.5t8 231.5v317h903v-1227h162v-514h-236v287h-944v-287h-244v514zM434 227h578v1000h-389v-109q0 -585 -189 -891z" />
<glyph unicode="&#x415;" horiz-adv-x="1165" d="M176 0v1454h871v-227h-607v-381h490v-228h-490v-391h639v-227h-903z" />
<glyph unicode="&#x416;" horiz-adv-x="1908" d="M27 0l409 758v4l-379 692h285l311 -592h170v592h262v-592h170l312 592h284l-381 -692v-4l412 -758h-297l-330 635h-170v-635h-262v635h-170l-329 -635h-297z" />
<glyph unicode="&#x417;" horiz-adv-x="1136" d="M45 182l143 176q60 -64 147.5 -106.5t180.5 -42.5q118 0 188 59t70 164q0 95 -62.5 149t-168.5 54h-178v213h143q98 0 161.5 57t63.5 144q0 88 -57 144t-166 56q-166 0 -315 -123l-107 193q193 160 467 160q88 0 168 -26.5t142 -75.5t99 -125.5t37 -170.5 q0 -215 -200 -323v-4q112 -34 177.5 -122.5t65.5 -215.5q0 -133 -68.5 -235t-182 -154t-252.5 -52q-140 0 -271.5 54t-224.5 153z" />
<glyph unicode="&#x418;" horiz-adv-x="1542" d="M176 0v1454h264v-840q0 -38 -3.5 -94.5t-6.5 -93.5l-4 -37h4q70 141 123 227l549 838h262v-1454h-262v838q0 38 3.5 94.5t6.5 93.5l4 37h-4q-68 -139 -121 -225l-553 -838h-262z" />
<glyph unicode="&#x419;" horiz-adv-x="1542" d="M176 0v1454h264v-840q0 -38 -3.5 -94.5t-6.5 -93.5l-4 -37h4q70 141 123 227l549 838h262v-1454h-262v838q0 38 3.5 94.5t6.5 93.5l4 37h-4q-68 -139 -121 -225l-553 -838h-262zM446 1802v27h199v-27q0 -62 40.5 -95.5t96.5 -33.5t98 34t42 97v25h196v-27 q0 -130 -98 -206t-238 -76t-238 76t-98 206z" />
<glyph unicode="&#x41a;" horiz-adv-x="1306" d="M176 0v1454h264v-592h189l342 592h286l-411 -692v-4l436 -758h-299l-354 635h-189v-635h-264z" />
<glyph unicode="&#x41b;" horiz-adv-x="1417" d="M29 -16v241q163 22 238 218t75 614v397h899v-1454h-264v1227h-383v-174q0 -537 -133.5 -798t-431.5 -271z" />
<glyph unicode="&#x41c;" horiz-adv-x="1761" d="M121 0l119 1454h280l287 -719q15 -38 33 -91.5t28 -87.5l11 -34h4q38 127 71 213l287 719h281l118 -1454h-264l-59 813q-4 43 -4.5 99t1.5 91l1 35h-4q-47 -141 -80 -225l-236 -563h-229l-236 563q-15 37 -34.5 94t-31.5 95l-13 38h-5q6 -131 -2 -227l-59 -813h-264z" />
<glyph unicode="&#x41d;" horiz-adv-x="1544" d="M176 0v1454h264v-616h666v616h262v-1454h-262v610h-666v-610h-264z" />
<glyph unicode="&#x41e;" horiz-adv-x="1683" d="M90 737q0 154 58 291t157.5 236t239 157t297.5 58t297.5 -58t239 -157t157 -236t57.5 -291q0 -158 -57.5 -299t-157 -242.5t-239 -161t-297.5 -59.5t-297.5 59.5t-239 161t-157.5 242.5t-58 299zM362 737q0 -145 64 -264.5t174.5 -187.5t241.5 -68t241 68t174 187.5 t64 264.5q0 211 -139.5 355.5t-339.5 144.5t-340 -144.5t-140 -355.5z" />
<glyph unicode="&#x41f;" horiz-adv-x="1529" d="M176 0v1454h1178v-1454h-264v1227h-650v-1227h-264z" />
<glyph unicode="&#x420;" horiz-adv-x="1253" d="M176 0v1454h561q205 0 334 -131t129 -342q0 -212 -129.5 -345.5t-333.5 -133.5h-297v-502h-264zM440 731h248q114 0 179 67.5t65 182.5q0 113 -64 179.5t-176 66.5h-252v-496z" />
<glyph unicode="&#x421;" horiz-adv-x="1466" d="M92 733q0 209 95 379.5t266.5 268.5t386.5 98q150 0 292 -50t244 -149l-127 -197q-79 68 -186.5 111t-210.5 43q-116 0 -210 -40t-153.5 -109.5t-91.5 -159t-32 -191.5q0 -103 32.5 -196t93 -165.5t154.5 -115.5t209 -43q114 0 225 50t197 134l139 -190 q-232 -236 -571 -236q-224 0 -396.5 100.5t-264 272t-91.5 385.5z" />
<glyph unicode="&#x422;" horiz-adv-x="1275" d="M29 1227v227h1216v-227h-477v-1227h-262v1227h-477z" />
<glyph unicode="&#x423;" horiz-adv-x="1253" d="M-6 1454h291l309 -649q21 -43 41.5 -91t30.5 -75l10 -27h4q26 97 59 191l234 651h276l-448 -1149q-20 -52 -41.5 -94.5t-55 -88.5t-71.5 -76.5t-91 -50.5t-114 -20q-145 0 -291 101l117 198q91 -71 164 -71q53 0 86.5 31.5t58.5 95.5z" />
<glyph unicode="&#x424;" horiz-adv-x="1730" d="M68 774q0 266 184.5 434t480.5 168v160h264v-160q296 0 481 -168t185 -434q0 -178 -83 -318t-235 -218t-348 -78v-185h-264v185q-295 0 -480 171.5t-185 442.5zM338 774q0 -175 110 -284t285 -109v774q-175 0 -285 -105.5t-110 -275.5zM997 381q177 0 287.5 109 t110.5 284q0 170 -110.5 275.5t-287.5 105.5v-774z" />
<glyph unicode="&#x425;" horiz-adv-x="1273" d="M27 0l450 737l-434 717h301l201 -356l90 -176h4q41 90 90 176l203 356h301l-436 -717l452 -737h-295l-227 391l-90 172h-4q-41 -88 -88 -172l-226 -391h-292z" />
<glyph unicode="&#x426;" horiz-adv-x="1579" d="M176 0v1454h264v-1227h629v1227h264v-1227h172v-514h-235v287h-1094z" />
<glyph unicode="&#x427;" horiz-adv-x="1351" d="M94 977v477h268v-418q0 -127 59 -191.5t185 -64.5q86 0 166.5 26t132.5 60v588h269v-1454h-269v563l4 68h-4q-68 -35 -166 -62.5t-200 -27.5q-223 0 -334 113.5t-111 322.5z" />
<glyph unicode="&#x428;" horiz-adv-x="2082" d="M176 0v1454h264v-1227h469v1227h265v-1227h468v1227h263v-1454h-1729z" />
<glyph unicode="&#x429;" horiz-adv-x="2156" d="M176 0v1454h264v-1227h469v1227h265v-1227h468v1227h263v-1227h180v-514h-238v287h-1671z" />
<glyph unicode="&#x42a;" horiz-adv-x="1445" d="M14 1227v227h637v-510h285q201 0 328 -129.5t127 -345.5q0 -209 -125.5 -339t-325.5 -130h-553v1227h-373zM651 227h242q108 0 168.5 65.5t60.5 176.5q0 113 -62.5 180.5t-170.5 67.5h-238v-490z" />
<glyph unicode="&#x42b;" horiz-adv-x="1794" d="M176 0v1454h264v-510h271q202 0 328 -129.5t126 -345.5q0 -209 -125 -339t-323 -130h-541zM440 227h230q107 0 167 65t60 177q0 114 -61.5 181t-169.5 67h-226v-490zM1354 0v1454h262v-1454h-262z" />
<glyph unicode="&#x42c;" horiz-adv-x="1234" d="M176 0v1454h264v-510h285q201 0 328 -129.5t127 -345.5q0 -209 -125.5 -339t-325.5 -130h-553zM440 227h242q108 0 168.5 65.5t60.5 176.5q0 113 -62.5 180.5t-170.5 67.5h-238v-490z" />
<glyph unicode="&#x42d;" horiz-adv-x="1466" d="M57 199l133 186q79 -76 195 -123t238 -47q192 0 319 114.5t154 291.5h-697v215h699q-24 177 -152.5 290t-320.5 113q-224 0 -414 -164l-127 199q98 100 244 152.5t305 52.5q167 0 307.5 -58t235.5 -158.5t147.5 -236.5t52.5 -291q0 -160 -56 -300.5t-155 -241.5 t-239.5 -159.5t-302.5 -58.5q-171 0 -315 61t-251 163z" />
<glyph unicode="&#x42e;" horiz-adv-x="2217" d="M176 0v1454h264v-616h226q16 136 77.5 254.5t156 203.5t222 134t269.5 49q206 0 375.5 -98t265.5 -268.5t96 -375.5q0 -158 -56.5 -299t-154 -242.5t-234.5 -161t-292 -59.5q-185 0 -341 82.5t-255 227t-125 325.5h-230v-610h-264zM928 737q0 -220 134.5 -370t328.5 -150 t329 150t135 370q0 211 -135 354.5t-329 143.5t-328.5 -143.5t-134.5 -354.5z" />
<glyph unicode="&#x42f;" horiz-adv-x="1298" d="M35 0l307 512l47 76v4q-129 57 -193.5 167.5t-64.5 254.5q0 148 66.5 251.5t177.5 149.5q88 39 276 39h471v-1454h-264v543h-213l-315 -543h-295zM399 1004q0 -114 61.5 -177t168.5 -63h229v463h-186q-123 0 -183 -37q-43 -27 -66.5 -76.5t-23.5 -109.5z" />
<glyph unicode="&#x430;" horiz-adv-x="1097" d="M59 289q0 65 22 118.5t58 91t87.5 66t104.5 45t115.5 27.5t115 14.5t106.5 3.5h45v15q0 97 -54 140.5t-143 43.5q-144 0 -291 -100l-96 186q67 54 181.5 91.5t228.5 37.5q205 0 319.5 -109.5t114.5 -306.5v-653h-242v88q0 19 1.5 38t3.5 28l1 10h-4q-48 -85 -137 -137 t-193 -52q-145 0 -244.5 87.5t-99.5 226.5zM317 311q0 -56 42 -96.5t116 -40.5q103 0 171.5 86.5t68.5 188.5v28h-45q-46 0 -87.5 -3t-92.5 -13.5t-87 -27.5t-61 -48.5t-25 -73.5z" />
<glyph unicode="&#x431;" horiz-adv-x="1220" d="M94 610q0 300 116.5 478t397.5 286l361 142l78 -211l-398 -152q-144 -60 -221 -141t-84 -209h4q121 151 344 151q201 0 324 -131.5t123 -347.5q0 -219 -141.5 -359.5t-370.5 -140.5q-133 0 -235.5 47t-167 132t-97.5 200t-33 256zM358 473q0 -129 74 -206t184 -77 q111 0 186 76.5t75 204.5t-74 205.5t-182 77.5q-113 0 -188 -79.5t-75 -201.5z" />
<glyph unicode="&#x432;" horiz-adv-x="1101" d="M139 0v1044h486q162 0 257 -70.5t95 -199.5q0 -73 -36 -135t-101 -94v-2q89 -24 136.5 -90.5t47.5 -149.5q0 -150 -107.5 -226.5t-281.5 -76.5h-496zM399 172h191q85 0 128.5 38t43.5 101q0 65 -44.5 103.5t-127.5 38.5h-191v-281zM399 614h170q71 0 108.5 38t37.5 100 q0 58 -37.5 90t-112.5 32h-166v-260z" />
<glyph unicode="&#x433;" horiz-adv-x="864" d="M139 0v1044h686v-221h-426v-823h-260z" />
<glyph unicode="&#x434;" horiz-adv-x="1261" d="M27 209h129q54 78 86.5 196t42.5 217.5t10 204.5v217h768v-835h149v-455h-235v246h-709v-246h-241v455zM416 209h387v627h-260v-50q0 -367 -127 -577z" />
<glyph unicode="&#x435;" horiz-adv-x="1148" d="M76 522q0 241 148.5 394t383.5 153q145 0 251.5 -67t159 -178t52.5 -251q0 -34 -8 -100h-719q12 -131 100 -203.5t213 -72.5q158 0 299 114l103 -186q-79 -70 -192.5 -110t-227.5 -40q-168 0 -298 75t-197.5 199t-67.5 273zM350 651h461q-1 102 -60 161.5t-149 59.5 q-99 0 -166 -60t-86 -161z" />
<glyph unicode="&#x436;" horiz-adv-x="1607" d="M27 0l319 537v4l-293 503h271l231 -405h127v405h244v-405h127l231 405h270l-290 -503v-4l319 -537h-287l-239 420h-131v-420h-244v420h-131l-240 -420h-284z" />
<glyph unicode="&#x437;" horiz-adv-x="937" d="M45 129l111 166q50 -48 120 -83.5t144 -35.5q83 0 131.5 37.5t48.5 103.5q0 129 -174 129h-127v181h107q74 0 117.5 29t43.5 92q0 59 -39 91.5t-116 32.5q-122 0 -252 -86l-84 166q160 117 385 117q159 0 262.5 -76.5t103.5 -210.5q0 -167 -143 -235v-4q78 -29 127 -89 t49 -151q0 -105 -56 -180.5t-147.5 -111.5t-207.5 -36q-115 0 -222.5 42t-181.5 112z" />
<glyph unicode="&#x438;" horiz-adv-x="1241" d="M139 0v1044h248v-559q0 -77 -6 -125h4q9 20 78 125l387 559h252v-1044h-248v557q0 44 6 125h-4q-7 -18 -78 -125l-387 -557h-252z" />
<glyph unicode="&#x439;" horiz-adv-x="1241" d="M139 0v1044h248v-559q0 -77 -6 -125h4q9 20 78 125l387 559h252v-1044h-248v557q0 44 6 125h-4q-7 -18 -78 -125l-387 -557h-252zM285 1427v27h198v-27q0 -62 41 -95.5t97 -33.5t97.5 34.5t41.5 97.5v24h196v-27q0 -130 -97.5 -206t-237.5 -76t-238 76t-98 206z" />
<glyph unicode="&#x43a;" horiz-adv-x="1124" d="M139 0v1044h260v-399h127l254 399h289l-332 -497v-4l373 -543h-301l-274 424h-136v-424h-260z" />
<glyph unicode="&#x43b;" horiz-adv-x="1161" d="M41 -10v229q51 7 89 34t68.5 82t46 151t15.5 231v327h762v-1044h-260v834h-254v-117q0 -175 -24.5 -304.5t-79 -225t-145 -144.5t-218.5 -53z" />
<glyph unicode="&#x43c;" horiz-adv-x="1521" d="M96 0l94 1044h295l222 -538l51 -133h4q28 74 51 133l225 538h291l94 -1044h-249l-37 565l2 178h-4q-29 -77 -62 -151l-205 -461h-215l-204 459l-64 153h-4q1 -12 1.5 -30.5t1.5 -70t-1 -77.5l-37 -565h-250z" />
<glyph unicode="&#x43d;" horiz-adv-x="1245" d="M139 0v1044h260v-403h447v403h260v-1044h-260v422h-447v-422h-260z" />
<glyph unicode="&#x43e;" horiz-adv-x="1298" d="M76 522q0 156 77 282t207.5 195.5t286.5 69.5q158 0 289.5 -69.5t209 -195.5t77.5 -282q0 -157 -77.5 -283t-208 -195t-288.5 -69t-288.5 69t-207.5 195t-77 283zM340 522q0 -143 89.5 -234t219.5 -91q131 0 221.5 91t90.5 234q0 142 -91 234t-221 92t-219.5 -92 t-89.5 -234z" />
<glyph unicode="&#x43f;" horiz-adv-x="1230" d="M139 0v1044h953v-1044h-261v823h-432v-823h-260z" />
<glyph unicode="&#x440;" horiz-adv-x="1257" d="M139 -410v1454h238v-77l-4 -74h4q50 84 139.5 130t196.5 46q211 0 337 -151t126 -396q0 -246 -135 -396.5t-343 -150.5q-89 0 -167 38.5t-134 109.5h-4q6 -37 6 -90v-443h-260zM391 516q0 -130 69.5 -225.5t190.5 -95.5q112 0 187 86.5t75 236.5q0 148 -71.5 238 t-186.5 90q-112 0 -188 -83.5t-76 -246.5z" />
<glyph unicode="&#x441;" horiz-adv-x="1122" d="M76 522q0 149 68.5 273t199.5 199t299 75q113 0 221.5 -39t179.5 -117l-116 -178q-51 51 -123.5 82t-147.5 31q-142 0 -229.5 -93.5t-87.5 -230.5t90 -232t236 -95q81 0 163.5 37t143.5 96l100 -185q-74 -78 -189.5 -124t-240.5 -46q-127 0 -234 43t-179.5 117t-113 174 t-40.5 213z" />
<glyph unicode="&#x442;" horiz-adv-x="1024" d="M39 823v221h948v-221h-346v-823h-258v823h-344z" />
<glyph unicode="&#x443;" horiz-adv-x="1116" d="M8 1044h293l219 -602q9 -24 18.5 -59.5t15.5 -58.5l5 -23h4q19 82 35 137l205 606h282l-464 -1202q-52 -136 -153 -204t-224 -68q-56 0 -110 17t-80 34l-27 17l86 194q57 -43 114 -43t106 34.5t77 100.5l39 92z" />
<glyph unicode="&#x444;" horiz-adv-x="1533" d="M78 522q0 156 74.5 279.5t203 192t289.5 73.5v367h246v-367q245 -8 405 -158.5t160 -386.5q0 -158 -74 -281t-202 -191.5t-289 -74.5v-385h-246v385q-246 9 -406.5 159.5t-160.5 387.5zM332 522q0 -146 87.5 -236.5t225.5 -101.5v674q-139 -9 -226 -99t-87 -237zM891 184 q138 11 225.5 101.5t87.5 236.5q0 147 -87 237t-226 99v-674z" />
<glyph unicode="&#x445;" horiz-adv-x="1062" d="M31 0l344 528l-336 516h295l162 -284l32 -66h4q21 39 35 66l162 284h295l-336 -516l346 -528h-291l-180 303l-31 55h-4q-14 -32 -28 -55l-181 -303h-288z" />
<glyph unicode="&#x446;" horiz-adv-x="1277" d="M139 0v1044h260v-823h418v823h260v-823h150v-467h-236v246h-852z" />
<glyph unicode="&#x447;" horiz-adv-x="1114" d="M78 694v350h256v-307q0 -174 178 -174q110 0 203 66v415h258v-1044h-258v356l2 58h-4q-52 -29 -127.5 -48.5t-155.5 -19.5q-160 0 -256 86.5t-96 261.5z" />
<glyph unicode="&#x448;" horiz-adv-x="1673" d="M139 0v1044h248v-823h326v823h248v-823h325v823h248v-1044h-1395z" />
<glyph unicode="&#x449;" horiz-adv-x="1734" d="M139 0v1044h248v-823h326v823h248v-823h325v823h248v-823h147v-467h-233v246h-1309z" />
<glyph unicode="&#x44a;" horiz-adv-x="1189" d="M18 823v221h535v-358h195q186 0 288.5 -88.5t102.5 -257.5q0 -159 -97.5 -249.5t-296.5 -90.5h-452v823h-275zM553 178h149q87 0 132 45t45 119q0 76 -45 122t-134 46h-147v-332z" />
<glyph unicode="&#x44b;" horiz-adv-x="1521" d="M139 0v1044h260v-358h187q187 0 290 -89t103 -257q0 -159 -98 -249.5t-297 -90.5h-445zM399 178h144q86 0 130 45t44 119q0 76 -44.5 122t-133.5 46h-140v-332zM1122 0v1044h260v-1044h-260z" />
<glyph unicode="&#x44c;" horiz-adv-x="1038" d="M139 0v1044h260v-358h195q187 0 290 -89t103 -257q0 -159 -98 -249.5t-297 -90.5h-453zM399 178h152q86 0 130 45t44 119q0 76 -44.5 122t-133.5 46h-148v-332z" />
<glyph unicode="&#x44d;" horiz-adv-x="1118" d="M49 129l96 180q133 -127 316 -127q129 0 218.5 70t111.5 182h-457v178h457q-22 113 -110 181.5t-210 68.5q-166 0 -291 -112l-110 174q71 71 182 108t229 37q168 0 297.5 -75t196.5 -199t67 -273q0 -113 -40.5 -213t-113 -174t-179.5 -117t-234 -43q-119 0 -229.5 39 t-196.5 115z" />
<glyph unicode="&#x44e;" horiz-adv-x="1742" d="M139 0v1044h260v-413h172q35 195 185 316.5t354 121.5q154 0 281.5 -69.5t201.5 -195.5t74 -282q0 -158 -74 -283.5t-200.5 -194.5t-280.5 -69q-209 0 -359 123.5t-184 321.5h-170v-420h-260zM819 522q0 -144 84 -234.5t209 -90.5q124 0 207.5 90.5t83.5 234.5 q0 143 -84 234.5t-207 91.5q-125 0 -209 -91.5t-84 -234.5z" />
<glyph unicode="&#x44f;" horiz-adv-x="1085" d="M37 0l229 334q11 17 23 33t18 23l6 7v2q-92 34 -151.5 116.5t-59.5 191.5q0 159 102 248t273 89h469v-1044h-260v354h-135l-234 -354h-280zM362 709q0 -86 51.5 -130t135.5 -44h137v339h-135q-189 0 -189 -165z" />
<glyph unicode="&#x450;" horiz-adv-x="1148" d="M76 522q0 241 148.5 394t383.5 153q145 0 251.5 -67t159 -178t52.5 -251q0 -34 -8 -100h-719q12 -131 100 -203.5t213 -72.5q158 0 299 114l103 -186q-79 -70 -192.5 -110t-227.5 -40q-168 0 -298 75t-197.5 199t-67.5 273zM315 1454h269l155 -278h-211zM350 651h461 q-1 102 -60 161.5t-149 59.5q-99 0 -166 -60t-86 -161z" />
<glyph unicode="&#x451;" horiz-adv-x="1148" d="M76 522q0 241 148.5 394t383.5 153q145 0 251.5 -67t159 -178t52.5 -251q0 -34 -8 -100h-719q12 -131 100 -203.5t213 -72.5q158 0 299 114l103 -186q-79 -70 -192.5 -110t-227.5 -40q-168 0 -298 75t-197.5 199t-67.5 273zM309 1217v237h201v-237h-201zM350 651h461 q-1 102 -60 161.5t-149 59.5q-99 0 -166 -60t-86 -161zM686 1217v237h199v-237h-199z" />
<glyph unicode="&#x452;" horiz-adv-x="1255" d="M14 1108v180h125v166h260v-166h387v-180h-387v-283l-4 -88h4q43 84 139 145.5t222 61.5q364 0 364 -397v-531q0 -107 -30 -189.5t-74.5 -129t-104 -76.5t-109 -39.5t-97.5 -9.5q-26 0 -51.5 1.5t-37.5 2.5l-12 2v219q31 -4 66 -4q33 0 61.5 8t60 30t50 69.5t18.5 117.5 v476q0 104 -36 158.5t-128 54.5q-102 0 -178 -60.5t-104 -157.5q-19 -56 -19 -135v-354h-260v1108h-125z" />
<glyph unicode="&#x453;" horiz-adv-x="864" d="M139 0v1044h686v-221h-426v-823h-260zM332 1176l155 278h269l-215 -278h-209z" />
<glyph unicode="&#x454;" horiz-adv-x="1124" d="M76 522q0 149 68.5 273t199.5 199t299 75q77 0 147.5 -15t115.5 -36.5t79 -42.5t49 -36l15 -15l-113 -179q-5 5 -13.5 12.5t-36.5 27t-59 34.5t-78.5 27t-95.5 12q-127 0 -214.5 -64.5t-110.5 -175.5h456v-180h-456q22 -118 112 -187t224 -69q53 0 104.5 14t88 34 t65.5 40.5t43 34.5l14 14l98 -182q-6 -7 -18 -17.5t-53.5 -38.5t-88 -49.5t-121 -39t-153.5 -17.5q-127 0 -234 43t-179.5 117t-113 174t-40.5 213z" />
<glyph unicode="&#x455;" horiz-adv-x="935" d="M55 129l117 172q58 -54 138 -84.5t159 -30.5q69 0 107 27.5t38 77.5q0 33 -28.5 59t-74.5 45.5t-101 39.5t-110 46.5t-101 61t-74.5 89t-28.5 124.5q0 148 114 230.5t286 82.5q216 0 352 -119l-96 -182q-45 39 -120 64.5t-145 25.5q-69 0 -107 -25.5t-38 -74.5 q0 -33 28.5 -59.5t74.5 -45.5t101 -38t110 -45.5t101 -60t74.5 -88t28.5 -124.5q0 -140 -109 -231t-286 -91q-113 0 -222 39.5t-188 114.5z" />
<glyph unicode="&#x456;" horiz-adv-x="538" d="M139 0v1044h260v-1044h-260zM139 1223v231h260v-231h-260z" />
<glyph unicode="&#x457;" horiz-adv-x="538" d="M-16 1217v237h200v-237h-200zM139 0v1044h260v-1044h-260zM360 1217v237h199v-237h-199z" />
<glyph unicode="&#x458;" horiz-adv-x="538" d="M-115 -199q24 -4 45 -4q26 0 50.5 3.5t54.5 15.5t52 32t37 56.5t15 85.5v1054h260v-1075q0 -100 -32.5 -175t-79 -115t-110 -65t-113 -31.5t-101.5 -6.5q-37 0 -78 6v219zM139 1223v231h260v-231h-260z" />
<glyph unicode="&#x459;" horiz-adv-x="1595" d="M49 -10v229q53 7 91.5 33.5t69.5 80.5t46.5 147t15.5 225v339h695v-378h188q187 0 290 -87t103 -251q0 -154 -98 -241t-297 -87h-446v834h-189v-121q0 -368 -106.5 -542t-362.5 -181zM967 178h155q86 0 130 40.5t44 109.5q0 72 -44 114.5t-132 42.5h-153v-307z" />
<glyph unicode="&#x45a;" horiz-adv-x="1714" d="M139 0v1044h260v-380h426v380h260v-385h185q187 0 292 -85t105 -244q0 -154 -98 -242t-297 -88h-447v459h-426v-459h-260zM1085 178h156q88 0 132 40.5t44 111.5t-46.5 111t-135.5 40h-150v-303z" />
<glyph unicode="&#x45b;" horiz-adv-x="1255" d="M14 1108v180h125v166h260v-166h387v-180h-387v-283l-4 -88h4q42 85 138.5 146t222.5 61q364 0 364 -395v-549h-260v496q0 103 -36 157t-128 54q-103 0 -178.5 -59t-103.5 -156q-19 -56 -19 -138v-354h-260v1108h-125z" />
<glyph unicode="&#x45c;" horiz-adv-x="1124" d="M139 0v1044h260v-399h127l254 399h289l-332 -497v-4l373 -543h-301l-274 424h-136v-424h-260zM449 1176l155 278h268l-215 -278h-208z" />
<glyph unicode="&#x45d;" horiz-adv-x="1241" d="M139 0v1044h248v-559q0 -77 -6 -125h4q9 20 78 125l387 559h252v-1044h-248v557q0 44 6 125h-4q-7 -18 -78 -125l-387 -557h-252zM340 1454h268l156 -278h-211z" />
<glyph unicode="&#x45e;" horiz-adv-x="1116" d="M8 1044h293l219 -602q9 -24 18.5 -59.5t15.5 -58.5l5 -23h4q19 82 35 137l205 606h282l-464 -1202q-52 -136 -153 -204t-224 -68q-56 0 -110 17t-80 34l-27 17l86 194q57 -43 114 -43t106 34.5t77 100.5l39 92zM225 1427v27h199v-27q0 -62 40.5 -95.5t96.5 -33.5 t97.5 34.5t41.5 97.5v24h197v-27q0 -130 -98 -206t-238 -76t-238 76t-98 206z" />
<glyph unicode="&#x45f;" horiz-adv-x="1204" d="M139 0v1044h260v-823h406v823h258v-1044h-344v-246h-234v246h-346z" />
<glyph unicode="&#x462;" horiz-adv-x="1433" d="M20 1104v203h355v192h258v-192h418v-203h-418v-213h287q202 0 330 -122.5t128 -319.5q0 -200 -128.5 -324.5t-327.5 -124.5h-551v1104h-351zM633 227h241q108 0 172 60t64 162q0 98 -65 156.5t-175 58.5h-237v-437z" />
<glyph unicode="&#x463;" horiz-adv-x="1146" d="M-6 938v188h248v328h260v-328h336v-188h-334v-252h203q186 0 288.5 -88.5t102.5 -257.5q0 -159 -97.5 -249.5t-295.5 -90.5h-461v938h-250zM504 178h158q87 0 131.5 45t44.5 119q0 76 -45 122t-134 46h-155v-332z" />
<glyph unicode="&#x472;" horiz-adv-x="1683" d="M90 737q0 154 57 291t156.5 236t239.5 157t299 58q212 0 384.5 -98.5t269.5 -268t97 -375.5q0 -158 -57 -299t-156 -243t-239 -161t-299 -59t-299 59t-239.5 161t-156.5 243t-57 299zM365 629q34 -186 166 -304t313 -118q178 0 310.5 118.5t164.5 303.5h-954zM365 834 h956q-32 179 -165 294t-312 115q-183 0 -315.5 -114.5t-163.5 -294.5z" />
<glyph unicode="&#x473;" horiz-adv-x="1298" d="M76 522q0 156 77 282t207.5 195.5t286.5 69.5q158 0 289.5 -69.5t209 -195.5t77.5 -282q0 -157 -77.5 -283t-208 -195t-288.5 -69t-288.5 69t-207.5 195t-77 283zM319 451q22 -128 114 -205.5t218 -77.5q122 0 214.5 78t115.5 205h-662zM322 604h657q-26 122 -117 196 t-211 74q-122 0 -213 -74t-116 -196z" />
<glyph unicode="&#x474;" horiz-adv-x="1417" d="M10 1454h285l319 -948q12 -37 26 -90.5t22 -87.5l8 -35h4q28 129 55 213l264 803q30 90 73.5 117.5t141.5 27.5h183v-229h-50q-61 0 -87.5 -17t-49.5 -82l-395 -1126h-274z" />
<glyph unicode="&#x475;" horiz-adv-x="1183" d="M25 1044h274l217 -647q9 -27 18 -66.5t14 -64.5l5 -26h4q19 96 39 157l145 455q32 107 87 149.5t161 42.5h158v-223h-47q-61 0 -88.5 -20.5t-50.5 -85.5l-248 -715h-310z" />
<glyph unicode="&#x48a;" horiz-adv-x="1644" d="M176 0v1454h264v-840q0 -38 -3.5 -94.5t-6.5 -93.5l-4 -37h4q70 141 123 227l549 838h262v-1227h246v-143l-162 -371h-184l79 287h-241v838q0 38 3.5 94.5t6.5 93.5l4 37h-4q-68 -139 -121 -225l-553 -838h-262zM451 1802v27h198v-27q0 -62 40.5 -95.5t96.5 -33.5t98 34 t42 97v25h196v-27q0 -130 -98 -206t-238 -76t-237.5 76t-97.5 206z" />
<glyph unicode="&#x48b;" horiz-adv-x="1355" d="M139 0v1044h248v-559q0 -77 -6 -125h4q9 20 78 125l387 559h252v-825h215v-137l-141 -328h-175l68 246h-215v557q0 44 6 125h-4q-7 -18 -78 -125l-387 -557h-252zM295 1427v27h199v-27q0 -62 40.5 -95.5t96.5 -33.5t97.5 34.5t41.5 97.5v24h197v-27q0 -130 -98 -206 t-238 -76t-238 76t-98 206z" />
<glyph unicode="&#x48c;" horiz-adv-x="1417" d="M18 1149v201h336v186h258v-186h394v-201h-394v-252h293q202 0 330.5 -124t128.5 -324q0 -199 -128.5 -324t-328.5 -125h-559v1149h-330zM612 227h248q108 0 172 60t64 162q0 101 -65 161t-175 60h-244v-443z" />
<glyph unicode="&#x48d;" horiz-adv-x="1153" d="M0 938v188h248v328h260v-328h336v-188h-334v-252h203q186 0 288.5 -88.5t102.5 -257.5q0 -159 -97.5 -249.5t-295.5 -90.5h-461v938h-250zM510 178h158q87 0 131.5 45t44.5 119q0 76 -44.5 122t-133.5 46h-156v-332z" />
<glyph unicode="&#x48e;" horiz-adv-x="1288" d="M176 0v1454h561q205 0 334 -131t129 -342q0 -214 -129 -346l117 -148l-137 -114l-129 162q-79 -33 -185 -33h-297v-502h-264zM440 705h258q38 0 80 10l-131 166l139 114l136 -172q32 66 32 144q0 122 -66.5 191t-185.5 69h-262v-522z" />
<glyph unicode="&#x48f;" horiz-adv-x="1269" d="M139 -410v1454h238v-77l-4 -74h4q4 7 11.5 19t36.5 42.5t64 53.5t95.5 42t128.5 19q211 0 337 -151t126 -396q0 -226 -117 -375l110 -133l-137 -118l-112 133q-102 -54 -222 -54q-57 0 -109.5 15t-85.5 37t-58.5 44t-36.5 37l-11 15h-4q6 -37 6 -90v-443h-260zM391 508 q0 -85 29.5 -157t92.5 -119.5t149 -47.5q54 0 108 23l-135 164l137 118l127 -153q37 76 37 174q0 153 -74.5 244.5t-195.5 91.5q-120 0 -197.5 -84t-77.5 -254z" />
<glyph unicode="&#x490;" horiz-adv-x="1058" d="M176 0v1454h643v217h215v-444h-594v-1227h-264z" />
<glyph unicode="&#x491;" horiz-adv-x="876" d="M139 0v1044h498v209h203v-430h-441v-823h-260z" />
<glyph unicode="&#x492;" horiz-adv-x="1056" d="M66 610v187h120v657h836v-227h-573v-430h323v-187h-323v-610h-263v610h-120z" />
<glyph unicode="&#x493;" horiz-adv-x="882" d="M25 401v166h125v477h688v-221h-428v-256h258v-166h-258v-401h-260v401h-125z" />
<glyph unicode="&#x494;" horiz-adv-x="1282" d="M176 0v1454h838v-227h-574v-410q47 20 121 34.5t141 14.5q243 0 376.5 -149t133.5 -438q0 -332 -144.5 -493t-410.5 -161v213q61 0 108.5 20t87.5 67t61.5 136.5t21.5 217.5q0 185 -70 272.5t-225 87.5q-91 0 -201 -43v-596h-264z" />
<glyph unicode="&#x495;" horiz-adv-x="1062" d="M139 0v1044h711v-208h-451v-281q95 43 213 43q102 0 180 -36t124 -98.5t69 -141t23 -170.5q0 -372 -324 -578l-123 178q83 53 141 148t58 233q0 53 -10 96.5t-33 80t-64.5 57t-99.5 20.5q-85 0 -154 -43v-344h-260z" />
<glyph unicode="&#x496;" horiz-adv-x="2004" d="M27 0l409 758v4l-379 692h285l311 -592h170v592h262v-592h170l312 592h284l-381 -692v-4l287 -531h215v-514h-235v287h-152l-330 635h-170v-635h-262v635h-170l-329 -635h-297z" />
<glyph unicode="&#x497;" horiz-adv-x="1697" d="M27 0l319 537v4l-293 503h271l231 -405h127v405h244v-405h127l231 405h270l-290 -503v-4l186 -316h209v-467h-234v246h-129l-239 420h-131v-420h-244v420h-131l-240 -420h-284z" />
<glyph unicode="&#x498;" horiz-adv-x="1140" d="M45 182l143 176q60 -64 147.5 -106.5t180.5 -42.5q118 0 188 59t70 164q0 95 -62.5 149t-168.5 54h-178v213h143q98 0 161.5 57t63.5 144q0 88 -57 144t-166 56q-166 0 -315 -123l-107 193q193 160 467 160q88 0 168 -26.5t142 -75.5t99 -125.5t37 -170.5 q0 -215 -200 -323v-4q112 -34 177.5 -122.5t65.5 -215.5q0 -168 -104.5 -281.5t-271.5 -146.5v-275h-238v273q-235 37 -385 196z" />
<glyph unicode="&#x499;" horiz-adv-x="942" d="M45 129l111 166q50 -48 120 -83.5t144 -35.5q83 0 131.5 37.5t48.5 103.5q0 129 -174 129h-127v181h107q74 0 117.5 29t43.5 92q0 59 -39 91.5t-116 32.5q-122 0 -252 -86l-84 166q160 117 385 117q159 0 262.5 -76.5t103.5 -210.5q0 -167 -143 -235v-4q78 -29 127 -89 t49 -151q0 -126 -76.5 -205.5t-203.5 -107.5v-236h-228v230q-183 27 -307 145z" />
<glyph unicode="&#x49a;" horiz-adv-x="1398" d="M176 0v1454h264v-592h189l342 592h286l-411 -692v-4l305 -531h213v-514h-236v287h-145l-354 635h-189v-635h-264z" />
<glyph unicode="&#x49b;" horiz-adv-x="1204" d="M139 0v1044h260v-399h127l254 399h289l-332 -497v-4l221 -322h207v-467h-233v246h-123l-274 424h-136v-424h-260z" />
<glyph unicode="&#x49c;" horiz-adv-x="1519" d="M176 0v1454h264v-592h129v234h189v-234h84l340 592h286l-409 -692v-4l436 -758h-299l-354 635h-84v-238h-189v238h-129v-635h-264z" />
<glyph unicode="&#x49d;" horiz-adv-x="1300" d="M139 0v1044h260v-399h93v201h180v-201h30l254 399h289l-332 -497v-4l373 -543h-301l-274 424h-39v-205h-180v205h-93v-424h-260z" />
<glyph unicode="&#x49e;" horiz-adv-x="1314" d="M45 1067v178h137v209h264v-209h175v-178h-175v-205h189l342 592h287l-412 -692v-4l436 -758h-299l-354 635h-189v-635h-264v1067h-137z" />
<glyph unicode="&#x49f;" horiz-adv-x="1124" d="M14 1081v174h125v199h260v-199h207v-174h-207v-419h129l252 382h289l-330 -481v-4l371 -559h-299l-276 440h-136v-440h-260v1081h-125z" />
<glyph unicode="&#x4a0;" horiz-adv-x="1576" d="M33 1227v227h676v-592h190l340 592h287l-412 -692v-4l436 -758h-297l-354 635h-190v-635h-263v1227h-413z" />
<glyph unicode="&#x4a1;" horiz-adv-x="1275" d="M18 823v221h535v-399h127l254 399h287l-330 -497v-4l373 -543h-301l-277 424h-133v-424h-260v823h-275z" />
<glyph unicode="&#x4a2;" horiz-adv-x="1630" d="M176 0v1454h264v-616h666v616h262v-1227h213v-514h-235v287h-240v610h-666v-610h-264z" />
<glyph unicode="&#x4a3;" horiz-adv-x="1333" d="M139 0v1044h260v-403h447v403h260v-823h184v-467h-233v246h-211v422h-447v-422h-260z" />
<glyph unicode="&#x4a4;" horiz-adv-x="1929" d="M176 0v1454h264v-616h629v616h836v-227h-574v-1227h-262v610h-629v-610h-264z" />
<glyph unicode="&#x4a5;" horiz-adv-x="1517" d="M139 0v1044h260v-403h418v403h662v-221h-402v-823h-260v422h-418v-422h-260z" />
<glyph unicode="&#x4a6;" horiz-adv-x="2048" d="M176 0v1454h1038v-616q47 20 121.5 34.5t141.5 14.5q245 0 377.5 -154t132.5 -454q0 -335 -140.5 -494.5t-414.5 -159.5v213q49 0 88.5 11.5t75.5 42t60.5 79t39 127t14.5 181.5q0 203 -69 299t-224 96q-15 0 -30 -1.5t-27.5 -3t-28.5 -5t-25 -6t-26 -7.5t-23 -7t-23 -8 t-20 -7v-629h-262v1229h-512v-1229h-264z" />
<glyph unicode="&#x4a7;" horiz-adv-x="1710" d="M139 0v1044h877v-419q99 47 215 47q197 0 311.5 -134t114.5 -350q0 -203 -88.5 -359t-235.5 -255l-125 178q84 58 141.5 163.5t57.5 260.5q0 134 -56 206.5t-169 72.5q-93 0 -166 -43v-412h-260v823h-357v-823h-260z" />
<glyph unicode="&#x4a8;" horiz-adv-x="1925" d="M92 754q0 123 31.5 232t80.5 187t114.5 141.5t128.5 102t128 62.5l109 -238q-48 -21 -92.5 -50.5t-88 -74.5t-75 -98t-51 -124.5t-19.5 -150.5q0 -82 19 -158t59 -143t97.5 -117t140.5 -79t182 -29q75 0 168 21q-132 112 -207.5 265.5t-75.5 338.5q0 137 42.5 252.5 t115.5 194t172.5 122t212.5 43.5q239 0 385 -165.5t146 -424.5q0 -171 -82.5 -336.5t-225.5 -294.5q86 -18 187 -18h104v-215h-108q-213 0 -408 80q-208 -105 -430 -105q-162 0 -302 55.5t-241 155.5t-159 246.5t-58 321.5zM1014 846q0 -162 62.5 -290.5t178.5 -211.5 q132 92 209.5 230t77.5 288q0 162 -71.5 256t-188.5 94q-52 0 -99 -22.5t-85.5 -65.5t-61 -115t-22.5 -163z" />
<glyph unicode="&#x4a9;" horiz-adv-x="1630" d="M76 541q0 87 23 164.5t60 134t87 103.5t100 77t103 49l90 -209q-95 -42 -158.5 -126.5t-63.5 -198.5q0 -67 22 -128t66 -112.5t119 -82t172 -30.5q64 0 135 15q-210 165 -210 421q0 192 128.5 321.5t333.5 129.5q203 0 323 -119.5t120 -294.5q0 -119 -61.5 -235.5 t-170.5 -214.5q55 -8 127 -8h123v-197h-110q-189 0 -357 63q-187 -88 -383 -88q-189 0 -330 73.5t-214.5 201.5t-73.5 291zM864 625q0 -107 51 -193t144 -143q101 62 162 151.5t61 198.5q0 104 -54 166.5t-151 62.5q-98 0 -155.5 -69t-57.5 -174z" />
<glyph unicode="&#x4aa;" horiz-adv-x="1466" d="M92 733q0 209 95 379.5t266.5 268.5t386.5 98q150 0 292 -50t244 -149l-127 -197q-79 68 -186.5 111t-210.5 43q-116 0 -210 -40t-153.5 -109.5t-91.5 -159t-32 -191.5q0 -103 32.5 -196t93 -165.5t154.5 -115.5t209 -43q114 0 225 50t197 134l139 -190 q-201 -205 -483 -231v-267h-238v275q-275 47 -438.5 252.5t-163.5 492.5z" />
<glyph unicode="&#x4ab;" horiz-adv-x="1122" d="M76 522q0 149 68.5 273t199.5 199t299 75q113 0 221.5 -39t179.5 -117l-116 -178q-51 51 -123.5 82t-147.5 31q-142 0 -229.5 -93.5t-87.5 -230.5t90 -232t236 -95q81 0 163.5 37t143.5 96l100 -185q-60 -64 -149 -106.5t-189 -56.5v-228h-229v236q-197 39 -313.5 186 t-116.5 346z" />
<glyph unicode="&#x4ac;" horiz-adv-x="1282" d="M27 1227v227h1216v-227h-477v-1000h213v-514h-236v287h-241l2 4v1223h-477z" />
<glyph unicode="&#x4ad;" horiz-adv-x="1038" d="M39 823v221h948v-221h-346v-602h184v-467h-233v246h-209v823h-344z" />
<glyph unicode="&#x4ae;" horiz-adv-x="1214" d="M-8 1454h299l227 -428q20 -40 42 -89t34 -77l12 -29h4q43 105 88 195l226 428h299l-484 -846v-608h-262v608z" />
<glyph unicode="&#x4af;" horiz-adv-x="1107" d="M23 1044h272l217 -595q10 -28 20 -66.5t14 -62.5l5 -25h4q19 91 39 154l217 595h274l-401 -1015v-439h-258v439z" />
<glyph unicode="&#x4b0;" horiz-adv-x="1214" d="M-8 1454h299l227 -428q20 -40 42 -89t34 -77l12 -29h4q43 105 88 195l226 428h299l-473 -825h237v-189h-248v-440h-262v440h-235v189h223z" />
<glyph unicode="&#x4b1;" horiz-adv-x="1105" d="M23 1044h274l215 -595q10 -28 20 -66.5t14 -62.5l5 -25h4q19 91 39 154l215 595h274l-340 -864h183v-180h-242v-410h-258v410h-242v180h181z" />
<glyph unicode="&#x4b2;" horiz-adv-x="1363" d="M27 0l450 737l-434 717h301l201 -356l90 -178h4q41 92 90 178l203 356h301l-436 -717l313 -510h221v-514h-237v287h-140l-227 391l-90 172h-4q-41 -88 -88 -172l-226 -391h-292z" />
<glyph unicode="&#x4b3;" horiz-adv-x="1136" d="M31 0l344 528l-336 516h295l162 -284l32 -66h4q21 39 35 66l162 284h295l-336 -516l201 -307h203v-467h-234v246h-115l-180 303l-31 55h-4q-14 -32 -28 -55l-181 -303h-288z" />
<glyph unicode="&#x4b4;" horiz-adv-x="1869" d="M33 1227v227h1087v-227h-411v-1000h651v1227h262v-1227h193v-514h-236v287h-1133v1227h-413z" />
<glyph unicode="&#x4b5;" horiz-adv-x="1525" d="M41 823v221h831v-221h-286v-602h471v823h260v-823h160v-465h-236v244h-915v823h-285z" />
<glyph unicode="&#x4b6;" horiz-adv-x="1435" d="M94 977v477h268v-418q0 -127 59 -191.5t185 -64.5q86 0 166.5 26t132.5 60v588h269v-1227h212v-514h-235v287h-246v563l4 68h-4q-68 -35 -166 -62.5t-200 -27.5q-223 0 -334 113.5t-111 322.5z" />
<glyph unicode="&#x4b7;" horiz-adv-x="1204" d="M78 694v350h256v-307q0 -174 178 -174q110 0 203 66v415h258v-823h188v-467h-231v246h-215v356l2 58h-4q-52 -29 -127.5 -48.5t-155.5 -19.5q-160 0 -256 86.5t-96 261.5z" />
<glyph unicode="&#x4b8;" horiz-adv-x="1400" d="M90 987v467h268v-418q0 -117 49 -180.5t160 -73.5v281h189v-268q119 23 198 71v588h269v-1454h-269v573l4 68h-4q-98 -44 -198 -68v-231h-189v209h-4q-238 0 -355.5 113.5t-117.5 322.5z" />
<glyph unicode="&#x4b9;" horiz-adv-x="1191" d="M78 694v350h256v-307q0 -137 137 -168v242h180v-238q75 15 142 56v415h260v-1044h-260v371l4 55h-4q-67 -33 -142 -49v-187h-180v162h-14q-171 0 -275 85t-104 257z" />
<glyph unicode="&#x4ba;" horiz-adv-x="1308" d="M176 0v1454h264v-534l-4 -68h4q173 84 359 84q141 0 235.5 -58t136 -156t41.5 -233v-489h-268v449q0 123 -54.5 188t-174.5 65q-79 0 -153 -23t-122 -54v-625h-264z" />
<glyph unicode="&#x4bb;" horiz-adv-x="1253" d="M139 0v1454h260v-508q0 -23 -1.5 -45t-3.5 -33l-1 -10h4q43 84 140.5 147.5t222.5 63.5q364 0 364 -397v-672h-260v618q0 104 -36 158.5t-128 54.5q-135 0 -218 -97.5t-83 -248.5v-485h-260z" />
<glyph unicode="&#x4bc;" horiz-adv-x="1828" d="M66 1063q0 111 16 176l16 74h236l-17 -76q-16 -75 -16 -145q0 -92 35.5 -151.5t118.5 -59.5q29 183 124.5 319.5t234.5 207.5t302 71q288 0 452.5 -188t164.5 -498l-9 -117h-1005q12 -208 140.5 -333.5t318.5 -125.5q72 0 144.5 19t126.5 47.5t89 52t57 43.5l125 -201 q-20 -18 -36 -31.5t-72.5 -49.5t-115 -59t-153.5 -43t-198 -20q-191 0 -347.5 88.5t-251 249.5t-104.5 365q-175 0 -275.5 97t-100.5 288zM721 881h745q0 157 -90 260.5t-260 103.5q-84 0 -156.5 -32t-121.5 -84.5t-79 -116.5t-38 -131z" />
<glyph unicode="&#x4bd;" horiz-adv-x="1423" d="M55 813q0 69 21 148h207q-23 -71 -23 -134q0 -161 102 -176q39 190 178.5 304t340.5 114q145 0 251.5 -67t158.5 -178t52 -251l-8 -100h-719q12 -131 100.5 -203.5t213.5 -72.5q47 0 95 11.5t83 28.5t63.5 34t42.5 29l15 11l102 -186q-7 -6 -19.5 -16t-54 -36t-87 -46 t-116.5 -36t-143 -16q-120 0 -222 39t-172.5 107t-113 158.5t-51.5 193.5q-297 6 -297 340zM623 651h458q-3 99 -61 158t-146 59q-98 0 -165 -59.5t-86 -157.5z" />
<glyph unicode="&#x4be;" horiz-adv-x="1830" d="M66 1063q0 111 16 176l16 74h236l-17 -76q-16 -75 -16 -145q0 -92 35.5 -151.5t118.5 -59.5q29 183 124.5 319.5t234.5 207.5t302 71q288 0 452.5 -188t164.5 -498l-9 -117h-1005q12 -208 140.5 -333.5t318.5 -125.5q72 0 144.5 19t126.5 47.5t89 52t57 43.5l125 -201 q-189 -174 -485 -198v-267h-236v277q-236 48 -390 234.5t-167 453.5q-175 0 -275.5 97t-100.5 288zM721 881h745q0 157 -90 260.5t-260 103.5q-84 0 -156.5 -32t-121.5 -84.5t-79 -116.5t-38 -131z" />
<glyph unicode="&#x4bf;" horiz-adv-x="1423" d="M55 813q0 69 21 148h207q-23 -71 -23 -134q0 -161 102 -176q39 190 178.5 304t340.5 114q145 0 251.5 -67t158.5 -178t52 -251l-8 -100h-719q12 -131 100.5 -203.5t213.5 -72.5q47 0 95 11.5t83 28.5t63.5 34t42.5 29l15 11l102 -186q-6 -5 -16 -13.5t-45.5 -31 t-73.5 -41t-98 -36t-121 -23.5v-226h-229v242q-171 45 -276.5 175t-119.5 302q-297 6 -297 340zM623 651h458q-3 99 -61 158t-146 59q-98 0 -165 -59.5t-86 -157.5z" />
<glyph unicode="&#x4c0;" horiz-adv-x="614" d="M176 0v1454h260v-1454h-260z" />
<glyph unicode="&#x4c1;" horiz-adv-x="1908" d="M27 0l409 758v4l-379 692h285l311 -592h170v592h262v-592h170l312 592h284l-381 -692v-4l412 -758h-297l-330 635h-170v-635h-262v635h-170l-329 -635h-297zM627 1802v27h198v-27q0 -62 41 -95.5t97 -33.5t97.5 34t41.5 97v25h196v-27q0 -130 -97.5 -206t-237.5 -76 t-238 76t-98 206z" />
<glyph unicode="&#x4c2;" horiz-adv-x="1607" d="M27 0l319 537v4l-293 503h271l231 -405h127v405h244v-405h127l231 405h270l-290 -503v-4l319 -537h-287l-239 420h-131v-420h-244v420h-131l-240 -420h-284zM467 1427v27h199v-27q0 -62 40.5 -95.5t96.5 -33.5t97.5 34.5t41.5 97.5v24h197v-27q0 -130 -98 -206t-238 -76 t-238 76t-98 206z" />
<glyph unicode="&#x4c3;" horiz-adv-x="1345" d="M176 0v1454h264v-592h189l342 592h286l-378 -639q170 -45 271 -193t101 -362q0 -187 -59.5 -329t-180 -224t-286.5 -82v221q49 0 91.5 19.5t79.5 63t58 123t21 188.5q0 194 -100.5 297.5t-299.5 103.5h-135v-641h-264z" />
<glyph unicode="&#x4c4;" horiz-adv-x="1132" d="M139 0v1044h260v-401h127l254 401h289l-309 -464v-5q82 -28 142 -78.5t92 -113.5t46.5 -127.5t14.5 -134.5q0 -101 -28.5 -191t-77.5 -157t-104 -115.5t-118 -83.5l-121 180q38 19 71 47.5t63.5 72t48.5 107t18 140.5q0 138 -79.5 219.5t-233.5 81.5h-95v-422h-260z" />
<glyph unicode="&#x4c5;" horiz-adv-x="1521" d="M29 -16v241q163 22 238 218t75 614v397h899v-1227h246v-143l-162 -371h-184l80 287h-244v1227h-383v-174q0 -537 -133.5 -798t-431.5 -271z" />
<glyph unicode="&#x4c6;" horiz-adv-x="1265" d="M41 -10v229q51 7 89 34t68.5 82t46 151t15.5 231v327h762v-825h203v-137l-142 -328h-174l68 246h-215v834h-254v-117q0 -175 -24.5 -304.5t-79 -225t-145 -144.5t-218.5 -53z" />
<glyph unicode="&#x4c7;" horiz-adv-x="1544" d="M176 0v1454h264v-616h666v616h262l2 -1311q1 -131 -28.5 -229.5t-75.5 -154.5t-111 -89t-126.5 -42t-131.5 -5v223q41 0 73.5 10.5t65.5 39t51.5 90t18.5 151.5v473h-666v-610h-264z" />
<glyph unicode="&#x4c8;" horiz-adv-x="1247" d="M139 0v1044h260v-403h447v403h260v-929q0 -106 -21.5 -189.5t-66.5 -147t-99 -110t-133 -94.5l-135 184q66 38 105.5 79t64.5 110t25 166v309h-447v-422h-260z" />
<glyph unicode="&#x4c9;" horiz-adv-x="1648" d="M176 0v1454h264v-616h666v616h262v-1227h246v-143l-162 -371h-184l80 287h-242v610h-666v-610h-264z" />
<glyph unicode="&#x4ca;" horiz-adv-x="1349" d="M139 0v1044h260v-403h447v403h260v-825h203v-137l-142 -328h-174l68 246h-215v422h-447v-422h-260z" />
<glyph unicode="&#x4cb;" horiz-adv-x="1349" d="M94 977v477h268v-418q0 -127 59 -191.5t185 -64.5q86 0 166.5 26t132.5 60v588h269v-1454h-246v-287h-238v514h215v336l4 68h-4q-68 -35 -166 -62.5t-200 -27.5q-223 0 -334 113.5t-111 322.5z" />
<glyph unicode="&#x4cc;" horiz-adv-x="1116" d="M76 715v329h256v-286q0 -174 172 -174q114 0 213 65v395h260v-1044h-211v-246h-234v414h185v223l2 55h-2q-56 -30 -139.5 -51.5t-167.5 -21.5q-151 0 -242.5 85.5t-91.5 256.5z" />
<glyph unicode="&#x4cd;" horiz-adv-x="1880" d="M121 0l119 1454h280l287 -719q15 -38 33 -91.5t28 -87.5l11 -34h4q38 127 71 213l287 719h281l100 -1227h246v-143l-162 -371h-182l78 287h-226l-59 813q-4 43 -4.5 99t1.5 91l1 35h-4q-47 -141 -80 -225l-236 -563h-229l-236 563q-15 37 -34.5 94t-31.5 95l-13 38h-5 q6 -131 -2 -227l-59 -813h-264z" />
<glyph unicode="&#x4ce;" horiz-adv-x="1642" d="M96 0l94 1044h295l222 -538l51 -133h4q28 74 51 133l225 538h291l74 -825h217v-137l-141 -328h-176l67 246h-196l-37 565l2 178h-4q-29 -77 -62 -151l-205 -461h-215l-204 459l-64 153h-4q1 -12 1.5 -30.5t1.5 -70t-1 -77.5l-37 -565h-250z" />
<glyph unicode="&#x4cf;" horiz-adv-x="538" d="M139 0v1454h260v-1454h-260z" />
<glyph unicode="&#x4d0;" horiz-adv-x="1331" d="M16 0l510 1454h279l510 -1454h-271l-124 373h-510l-123 -373h-271zM326 1802v27h198v-27q0 -62 41 -95.5t97 -33.5t97.5 34t41.5 97v25h196v-27q0 -130 -97.5 -206t-237.5 -76t-238 76t-98 206zM475 588h379l-129 389q-11 36 -25.5 92.5t-23.5 94.5l-8 38h-4 q-33 -143 -58 -225z" />
<glyph unicode="&#x4d1;" horiz-adv-x="1099" d="M59 289q0 65 22 118.5t58 91t87.5 66t104.5 45t115.5 27.5t115 14.5t106.5 3.5h45v15q0 97 -54 140.5t-143 43.5q-144 0 -291 -100l-96 186q67 54 181.5 91.5t228.5 37.5q205 0 319.5 -109.5t114.5 -306.5v-653h-242v88q0 19 1.5 38t3.5 28l1 10h-4q-48 -85 -137 -137 t-193 -52q-145 0 -244.5 87.5t-99.5 226.5zM233 1427v27h199v-27q0 -62 40.5 -95.5t96.5 -33.5t98 34.5t42 97.5v24h196v-27q0 -130 -98 -206t-238 -76t-238 76t-98 206zM317 311q0 -56 42 -96.5t116 -40.5q103 0 171.5 86.5t68.5 188.5v28h-45q-46 0 -87.5 -3t-92.5 -13.5 t-87 -27.5t-61 -48.5t-25 -73.5z" />
<glyph unicode="&#x4d2;" horiz-adv-x="1331" d="M16 0l510 1454h279l510 -1454h-271l-124 373h-510l-123 -373h-271zM377 1591v238h201v-238h-201zM475 588h379l-129 389q-11 36 -25.5 92.5t-23.5 94.5l-8 38h-4q-33 -143 -58 -225zM754 1591v238h198v-238h-198z" />
<glyph unicode="&#x4d3;" horiz-adv-x="1099" d="M59 289q0 65 22 118.5t58 91t87.5 66t104.5 45t115.5 27.5t115 14.5t106.5 3.5h45v15q0 97 -54 140.5t-143 43.5q-144 0 -291 -100l-96 186q67 54 181.5 91.5t228.5 37.5q205 0 319.5 -109.5t114.5 -306.5v-653h-242v88q0 19 1.5 38t3.5 28l1 10h-4q-48 -85 -137 -137 t-193 -52q-145 0 -244.5 87.5t-99.5 226.5zM258 1217v237h201v-237h-201zM317 311q0 -56 42 -96.5t116 -40.5q103 0 171.5 86.5t68.5 188.5v28h-45q-46 0 -87.5 -3t-92.5 -13.5t-87 -27.5t-61 -48.5t-25 -73.5zM635 1217v237h199v-237h-199z" />
<glyph unicode="&#x4d4;" horiz-adv-x="1853" d="M2 0l602 1454h1135v-227h-609v-381h490v-228h-490v-391h639v-227h-901v623h-348l-244 -623h-274zM604 838h264v389h-108z" />
<glyph unicode="&#x4d5;" horiz-adv-x="1759" d="M59 301q0 69 24.5 124t63 91.5t95 63t109.5 40.5t119 22.5t111 10.5t97 2h35v15q0 184 -203 184q-143 0 -287 -100l-96 184q68 57 180 94t221 37q243 0 340 -154h4q126 154 349 154q212 0 336 -141t124 -357q0 -19 -3 -53.5t-3 -42.5h-714q13 -136 98 -207t209 -71 q79 0 159 30t142 82l100 -184q-73 -67 -190 -108.5t-230 -41.5q-151 0 -261 60.5t-175 169.5h-4q-9 -20 -24.5 -43t-49.5 -58t-75 -61.5t-105.5 -46t-138.5 -19.5q-151 0 -254 87.5t-103 236.5zM322 313q0 -58 40.5 -96.5t118.5 -38.5q101 0 168.5 87t67.5 190v20h-74 q-58 0 -109.5 -7t-102 -23.5t-80 -50.5t-29.5 -81zM969 655h450q-3 96 -60.5 153.5t-139.5 57.5q-99 0 -164.5 -55.5t-85.5 -155.5z" />
<glyph unicode="&#x4d6;" horiz-adv-x="1165" d="M176 0v1454h871v-227h-607v-381h490v-228h-490v-391h639v-227h-903zM287 1802v27h198v-27q0 -62 41 -95.5t97 -33.5t97.5 34t41.5 97v25h196v-27q0 -130 -97.5 -206t-237.5 -76t-238 76t-98 206z" />
<glyph unicode="&#x4d7;" horiz-adv-x="1148" d="M76 522q0 241 148.5 394t383.5 153q145 0 251.5 -67t159 -178t52.5 -251q0 -34 -8 -100h-719q12 -131 100 -203.5t213 -72.5q158 0 299 114l103 -186q-79 -70 -192.5 -110t-227.5 -40q-168 0 -298 75t-197.5 199t-67.5 273zM262 1427v27h199v-27q0 -62 40.5 -95.5 t96.5 -33.5t97.5 34.5t41.5 97.5v24h197v-27q0 -130 -98 -206t-238 -76t-238 76t-98 206zM350 651h461q-1 102 -60 161.5t-149 59.5q-99 0 -166 -60t-86 -161z" />
<glyph unicode="&#x4d8;" horiz-adv-x="1482" d="M94 690l8 127h1010q-15 188 -134 304t-306 116q-74 0 -148 -17.5t-129 -44.5t-91 -50t-58 -42l-127 197q20 17 38 31.5t76.5 48.5t118.5 57t156 42.5t197 19.5q152 0 282 -60t217.5 -162t137 -239t49.5 -289q0 -161 -48.5 -300.5t-135.5 -239.5t-212.5 -157t-273.5 -57 q-294 0 -460.5 191t-166.5 524zM360 612q0 -191 92 -297t275 -106q171 0 275.5 110.5t107.5 292.5h-750z" />
<glyph unicode="&#x4d9;" horiz-adv-x="1148" d="M76 483l8 113h723q-13 123 -97.5 193.5t-201.5 70.5q-49 0 -99 -11.5t-87.5 -27.5t-67.5 -32t-46 -27l-15 -12l-97 180q206 139 445 139q162 0 284 -73.5t185 -197t63 -276.5q0 -245 -145.5 -396t-378.5 -151q-224 0 -348.5 140.5t-124.5 367.5zM346 420 q3 -123 60.5 -183.5t148.5 -60.5q103 0 172 63.5t72 180.5h-453z" />
<glyph unicode="&#x4da;" horiz-adv-x="1482" d="M94 690l8 127h1010q-15 188 -134 304t-306 116q-74 0 -148 -17.5t-129 -44.5t-91 -50t-58 -42l-127 197q20 17 38 31.5t76.5 48.5t118.5 57t156 42.5t197 19.5q152 0 282 -60t217.5 -162t137 -239t49.5 -289q0 -161 -48.5 -300.5t-135.5 -239.5t-212.5 -157t-273.5 -57 q-294 0 -460.5 191t-166.5 524zM360 612q0 -191 92 -297t275 -106q171 0 275.5 110.5t107.5 292.5h-750zM432 1591v238h201v-238h-201zM809 1591v238h199v-238h-199z" />
<glyph unicode="&#x4db;" horiz-adv-x="1148" d="M76 483l8 113h723q-13 123 -97.5 193.5t-201.5 70.5q-49 0 -99 -11.5t-87.5 -27.5t-67.5 -32t-46 -27l-15 -12l-97 180q206 139 445 139q162 0 284 -73.5t185 -197t63 -276.5q0 -245 -145.5 -396t-378.5 -151q-224 0 -348.5 140.5t-124.5 367.5zM252 1217v237h201v-237 h-201zM346 420q3 -123 60.5 -183.5t148.5 -60.5q103 0 172 63.5t72 180.5h-453zM629 1217v237h198v-237h-198z" />
<glyph unicode="&#x4dc;" horiz-adv-x="1908" d="M27 0l409 758v4l-379 692h285l311 -592h170v592h262v-592h170l312 592h284l-381 -692v-4l412 -758h-297l-330 635h-170v-635h-262v635h-170l-329 -635h-297zM674 1591v238h200v-238h-200zM1051 1591v238h198v-238h-198z" />
<glyph unicode="&#x4dd;" horiz-adv-x="1607" d="M27 0l319 537v4l-293 503h271l231 -405h127v405h244v-405h127l231 405h270l-290 -503v-4l319 -537h-287l-239 420h-131v-420h-244v420h-131l-240 -420h-284zM516 1217v237h201v-237h-201zM893 1217v237h199v-237h-199z" />
<glyph unicode="&#x4de;" horiz-adv-x="1136" d="M45 182l143 176q60 -64 147.5 -106.5t180.5 -42.5q118 0 188 59t70 164q0 95 -62.5 149t-168.5 54h-178v213h143q98 0 161.5 57t63.5 144q0 88 -57 144t-166 56q-166 0 -315 -123l-107 193q193 160 467 160q88 0 168 -26.5t142 -75.5t99 -125.5t37 -170.5 q0 -215 -200 -323v-4q112 -34 177.5 -122.5t65.5 -215.5q0 -133 -68.5 -235t-182 -154t-252.5 -52q-140 0 -271.5 54t-224.5 153zM266 1591v238h201v-238h-201zM643 1591v238h199v-238h-199z" />
<glyph unicode="&#x4df;" horiz-adv-x="937" d="M45 129l111 166q50 -48 120 -83.5t144 -35.5q83 0 131.5 37.5t48.5 103.5q0 129 -174 129h-127v181h107q74 0 117.5 29t43.5 92q0 59 -39 91.5t-116 32.5q-122 0 -252 -86l-84 166q160 117 385 117q159 0 262.5 -76.5t103.5 -210.5q0 -167 -143 -235v-4q78 -29 127 -89 t49 -151q0 -105 -56 -180.5t-147.5 -111.5t-207.5 -36q-115 0 -222.5 42t-181.5 112zM160 1217v237h200v-237h-200zM537 1217v237h198v-237h-198z" />
<glyph unicode="&#x4e0;" horiz-adv-x="1091" d="M63 100l84 191q60 -41 149.5 -68.5t170.5 -27.5q127 0 202.5 63t75.5 166q0 86 -46.5 133.5t-149.5 60.5q-46 5 -320 5v170l344 368q18 19 40.5 37.5t35.5 27.5l13 9v4q-55 -6 -125 -6h-441v221h858v-205l-364 -375q-13 -13 -28 -25t-24 -18l-8 -6v-4q115 -6 177 -20 q89 -19 150.5 -60.5t91 -96.5t41 -106t11.5 -108q0 -107 -41 -193.5t-112.5 -142t-165 -85t-201.5 -29.5q-116 0 -225 32t-193 88z" />
<glyph unicode="&#x4e1;" horiz-adv-x="1011" d="M14 -309l84 190q60 -41 149.5 -68.5t170.5 -27.5q127 0 202.5 63t75.5 166q0 86 -46.5 134t-149.5 61q-37 4 -320 4v170l344 369q18 19 40 37.5t35 26.5l13 9v4q-55 -6 -125 -6h-440v221h858v-204l-364 -375q-13 -13 -28 -25t-23 -18l-9 -6v-4q108 -5 176 -21 q72 -15 126.5 -46.5t85.5 -68.5t50.5 -84t26 -87.5t6.5 -84.5q0 -107 -41 -193.5t-112.5 -142t-165 -85t-201.5 -29.5q-115 0 -224.5 32.5t-193.5 88.5z" />
<glyph unicode="&#x4e2;" horiz-adv-x="1542" d="M176 0v1454h264v-840q0 -38 -3.5 -94.5t-6.5 -93.5l-4 -37h4q70 141 123 227l549 838h262v-1454h-262v838q0 38 3.5 94.5t6.5 93.5l4 37h-4q-68 -139 -121 -225l-553 -838h-262zM528 1604v178h537v-178h-537z" />
<glyph unicode="&#x4e3;" horiz-adv-x="1241" d="M139 0v1044h248v-559q0 -77 -6 -125h4q9 20 78 125l387 559h252v-1044h-248v557q0 44 6 125h-4q-7 -18 -78 -125l-387 -557h-252zM362 1229v178h537v-178h-537z" />
<glyph unicode="&#x4e4;" horiz-adv-x="1542" d="M176 0v1454h264v-840q0 -38 -3.5 -94.5t-6.5 -93.5l-4 -37h4q70 141 123 227l549 838h262v-1454h-262v838q0 38 3.5 94.5t6.5 93.5l4 37h-4q-68 -139 -121 -225l-553 -838h-262zM485 1591v238h201v-238h-201zM862 1591v238h199v-238h-199z" />
<glyph unicode="&#x4e5;" horiz-adv-x="1241" d="M139 0v1044h248v-559q0 -77 -6 -125h4q9 20 78 125l387 559h252v-1044h-248v557q0 44 6 125h-4q-7 -18 -78 -125l-387 -557h-252zM338 1217v237h201v-237h-201zM715 1217v237h198v-237h-198z" />
<glyph unicode="&#x4e6;" horiz-adv-x="1683" d="M90 737q0 206 95.5 375.5t268 268t388.5 98.5t388.5 -98.5t267.5 -268t95 -375.5q0 -212 -95 -386t-267.5 -275t-388.5 -101t-388.5 101t-268 275t-95.5 386zM362 737q0 -223 136 -371.5t344 -148.5t343.5 148.5t135.5 371.5q0 214 -135.5 357t-343.5 143t-344 -143 t-136 -357zM551 1591v238h201v-238h-201zM928 1591v238h198v-238h-198z" />
<glyph unicode="&#x4e7;" horiz-adv-x="1298" d="M76 522q0 156 77 282t207.5 195.5t286.5 69.5q158 0 289.5 -69.5t209 -195.5t77.5 -282q0 -157 -77.5 -283t-208 -195t-288.5 -69t-288.5 69t-207.5 195t-77 283zM340 522q0 -143 89.5 -234t219.5 -91q131 0 221.5 91t90.5 234q0 142 -91 234t-221 92t-219.5 -92 t-89.5 -234zM362 1217v237h201v-237h-201zM739 1217v237h199v-237h-199z" />
<glyph unicode="&#x4e8;" horiz-adv-x="1683" d="M90 737q0 154 57 291t156.5 236t239.5 157t299 58q212 0 384.5 -98.5t269.5 -268t97 -375.5q0 -158 -57 -299t-156 -243t-239 -161t-299 -59t-299 59t-239.5 161t-156.5 243t-57 299zM365 629q34 -186 166 -304t313 -118q178 0 310.5 118.5t164.5 303.5h-954zM365 834 h956q-32 179 -165 294t-312 115q-183 0 -315.5 -114.5t-163.5 -294.5z" />
<glyph unicode="&#x4e9;" horiz-adv-x="1298" d="M76 522q0 156 77 282t207.5 195.5t286.5 69.5q158 0 289.5 -69.5t209 -195.5t77.5 -282q0 -157 -77.5 -283t-208 -195t-288.5 -69t-288.5 69t-207.5 195t-77 283zM319 451q22 -128 114 -205.5t218 -77.5q122 0 214.5 78t115.5 205h-662zM322 604h657q-26 122 -117 196 t-211 74q-122 0 -213 -74t-116 -196z" />
<glyph unicode="&#x4ea;" horiz-adv-x="1683" d="M90 737q0 154 57 291t156.5 236t239.5 157t299 58q212 0 384.5 -98.5t269.5 -268t97 -375.5q0 -158 -57 -299t-156 -243t-239 -161t-299 -59t-299 59t-239.5 161t-156.5 243t-57 299zM365 629q34 -186 166 -304t313 -118q178 0 310.5 118.5t164.5 303.5h-954zM365 834 h956q-32 179 -165 294t-312 115q-183 0 -315.5 -114.5t-163.5 -294.5zM553 1591v238h201v-238h-201zM930 1591v238h198v-238h-198z" />
<glyph unicode="&#x4eb;" horiz-adv-x="1298" d="M76 522q0 156 77 282t207.5 195.5t286.5 69.5q158 0 289.5 -69.5t209 -195.5t77.5 -282q0 -157 -77.5 -283t-208 -195t-288.5 -69t-288.5 69t-207.5 195t-77 283zM319 451q22 -128 114 -205.5t218 -77.5q122 0 214.5 78t115.5 205h-662zM322 604h657q-26 122 -117 196 t-211 74q-122 0 -213 -74t-116 -196zM358 1217v237h201v-237h-201zM735 1217v237h199v-237h-199z" />
<glyph unicode="&#x4ec;" horiz-adv-x="1466" d="M57 199l133 186q79 -76 195 -123t238 -47q192 0 319 114.5t154 291.5h-697v215h699q-24 177 -152.5 290t-320.5 113q-224 0 -414 -164l-127 199q98 100 244 152.5t305 52.5q167 0 307.5 -58t235.5 -158.5t147.5 -236.5t52.5 -291q0 -160 -56 -300.5t-155 -241.5 t-239.5 -159.5t-302.5 -58.5q-171 0 -315 61t-251 163zM379 1591v238h201v-238h-201zM756 1591v238h198v-238h-198z" />
<glyph unicode="&#x4ed;" horiz-adv-x="1118" d="M49 129l96 180q133 -127 316 -127q129 0 218.5 70t111.5 182h-457v178h457q-22 113 -110 181.5t-210 68.5q-166 0 -291 -112l-110 174q71 71 182 108t229 37q168 0 297.5 -75t196.5 -199t67 -273q0 -113 -40.5 -213t-113 -174t-179.5 -117t-234 -43q-119 0 -229.5 39 t-196.5 115zM233 1217v237h201v-237h-201zM610 1217v237h199v-237h-199z" />
<glyph unicode="&#x4ee;" horiz-adv-x="1253" d="M-6 1454h291l309 -649q21 -43 41.5 -91t30.5 -75l10 -27h4q26 97 59 191l234 651h276l-448 -1149q-20 -52 -41.5 -94.5t-55 -88.5t-71.5 -76.5t-91 -50.5t-114 -20q-145 0 -291 101l117 198q91 -71 164 -71q53 0 86.5 31.5t58.5 95.5zM362 1604v178h537v-178h-537z" />
<glyph unicode="&#x4ef;" horiz-adv-x="1116" d="M8 1044h293l219 -602q9 -24 18.5 -59.5t15.5 -58.5l5 -23h4q19 82 35 137l205 606h282l-464 -1202q-52 -136 -153 -204t-224 -68q-56 0 -110 17t-80 34l-27 17l86 194q57 -43 114 -43t106 34.5t77 100.5l39 92zM291 1229v178h536v-178h-536z" />
<glyph unicode="&#x4f0;" horiz-adv-x="1253" d="M-6 1454h291l309 -649q21 -43 41.5 -91t30.5 -75l10 -27h4q26 97 59 191l234 651h276l-448 -1149q-20 -52 -41.5 -94.5t-55 -88.5t-71.5 -76.5t-91 -50.5t-114 -20q-145 0 -291 101l117 198q91 -71 164 -71q53 0 86.5 31.5t58.5 95.5zM354 1591v238h201v-238h-201z M731 1591v238h199v-238h-199z" />
<glyph unicode="&#x4f1;" horiz-adv-x="1116" d="M8 1044h293l219 -602q9 -24 18.5 -59.5t15.5 -58.5l5 -23h4q19 82 35 137l205 606h282l-464 -1202q-52 -136 -153 -204t-224 -68q-56 0 -110 17t-80 34l-27 17l86 194q57 -43 114 -43t106 34.5t77 100.5l39 92zM270 1217v237h201v-237h-201zM647 1217v237h199v-237h-199z " />
<glyph unicode="&#x4f2;" horiz-adv-x="1253" d="M-6 1454h291l309 -649q21 -43 41.5 -91t30.5 -75l10 -27h4q26 97 59 191l234 651h276l-448 -1149q-20 -52 -41.5 -94.5t-55 -88.5t-71.5 -76.5t-91 -50.5t-114 -20q-145 0 -291 101l117 198q91 -71 164 -71q53 0 86.5 31.5t58.5 95.5zM350 1550l146 279h221l-152 -279 h-215zM709 1550l155 279h256l-213 -279h-198z" />
<glyph unicode="&#x4f3;" horiz-adv-x="1116" d="M8 1044h293l219 -602q9 -24 18.5 -59.5t15.5 -58.5l5 -23h4q19 82 35 137l205 606h282l-464 -1202q-52 -136 -153 -204t-224 -68q-56 0 -110 17t-80 34l-27 17l86 194q57 -43 114 -43t106 34.5t77 100.5l39 92zM258 1176l145 278h222l-152 -278h-215zM616 1176l156 278 h256l-213 -278h-199z" />
<glyph unicode="&#x4f4;" horiz-adv-x="1351" d="M94 977v477h268v-418q0 -127 59 -191.5t185 -64.5q86 0 166.5 26t132.5 60v588h269v-1454h-269v563l4 68h-4q-68 -35 -166 -62.5t-200 -27.5q-223 0 -334 113.5t-111 322.5zM360 1591v238h201v-238h-201zM737 1591v238h199v-238h-199z" />
<glyph unicode="&#x4f5;" horiz-adv-x="1114" d="M78 694v350h256v-307q0 -174 178 -174q110 0 203 66v415h258v-1044h-258v356l2 58h-4q-52 -29 -127.5 -48.5t-155.5 -19.5q-160 0 -256 86.5t-96 261.5zM246 1217v237h200v-237h-200zM623 1217v237h198v-237h-198z" />
<glyph unicode="&#x4f6;" horiz-adv-x="1044" d="M176 0v1454h836v-227h-572v-1000h213v-514h-235v287h-242z" />
<glyph unicode="&#x4f7;" horiz-adv-x="872" d="M139 0v1044h686v-221h-426v-602h185v-467h-234v246h-211z" />
<glyph unicode="&#x4f8;" horiz-adv-x="1794" d="M176 0v1454h264v-510h271q202 0 328 -129.5t126 -345.5q0 -209 -125 -339t-323 -130h-541zM440 227h230q107 0 167 65t60 177q0 114 -61.5 181t-169.5 67h-226v-490zM608 1591v238h201v-238h-201zM985 1591v238h199v-238h-199zM1354 0v1454h262v-1454h-262z" />
<glyph unicode="&#x4f9;" horiz-adv-x="1521" d="M139 0v1044h260v-358h187q187 0 290 -89t103 -257q0 -159 -98 -249.5t-297 -90.5h-445zM399 178h144q86 0 130 45t44 119q0 76 -44.5 122t-133.5 46h-140v-332zM471 1217v237h201v-237h-201zM848 1217v237h199v-237h-199zM1122 0v1044h260v-1044h-260z" />
<glyph unicode="&#x524;" horiz-adv-x="1615" d="M176 0v1454h1178v-1227h213v-514h-236v287h-241v1227h-650v-1227h-264z" />
<glyph unicode="&#x525;" horiz-adv-x="1318" d="M139 0v1044h953v-823h184v-467h-236v246h-209v823h-432v-823h-260z" />
<glyph unicode="&#x1e9e;" horiz-adv-x="1406" d="M164 0v1016q0 192 125 315t321 123h647v-182l-245 -371l-47 -63v-4l39 -3q94 -13 167 -74.5t110.5 -147.5t37.5 -179q0 -180 -130.5 -305t-314.5 -125h-280v227h260q89 0 142 59.5t53 143.5q0 83 -52.5 141t-140.5 58h-172v182l182 289q25 42 48 73.5t34 42.5l10 11v4 q-16 -4 -90 -4h-252q-81 0 -132.5 -59t-51.5 -148v-1020h-268z" />
<glyph unicode="&#x2000;" horiz-adv-x="923" />
<glyph unicode="&#x2001;" horiz-adv-x="1847" />
<glyph unicode="&#x2002;" horiz-adv-x="923" />
<glyph unicode="&#x2003;" horiz-adv-x="1847" />
<glyph unicode="&#x2004;" horiz-adv-x="615" />
<glyph unicode="&#x2005;" horiz-adv-x="461" />
<glyph unicode="&#x2006;" horiz-adv-x="307" />
<glyph unicode="&#x2007;" horiz-adv-x="307" />
<glyph unicode="&#x2008;" horiz-adv-x="230" />
<glyph unicode="&#x2009;" horiz-adv-x="32" />
<glyph unicode="&#x200a;" horiz-adv-x="102" />
<glyph unicode="&#x2010;" horiz-adv-x="884" d="M135 471v227h615v-227h-615z" />
<glyph unicode="&#x2011;" horiz-adv-x="884" d="M135 471v227h615v-227h-615z" />
<glyph unicode="&#x2012;" horiz-adv-x="884" d="M135 471v227h615v-227h-615z" />
<glyph unicode="&#x2013;" horiz-adv-x="1411" d="M139 483v203h1133v-203h-1133z" />
<glyph unicode="&#x2014;" horiz-adv-x="1820" d="M139 483v203h1542v-203h-1542z" />
<glyph unicode="&#x2018;" horiz-adv-x="536" d="M106 1032l154 447h182l-96 -447h-240z" />
<glyph unicode="&#x2019;" horiz-adv-x="522" d="M117 1032l96 447h240l-154 -447h-182z" />
<glyph unicode="&#x201a;" horiz-adv-x="542" d="M82 -182l98 446h232l-152 -446h-178z" />
<glyph unicode="&#x201c;" horiz-adv-x="872" d="M106 1032l154 447h184l-98 -447h-240zM440 1032l154 447h184l-96 -447h-242z" />
<glyph unicode="&#x201d;" horiz-adv-x="858" d="M117 1032l96 447h240l-152 -447h-184zM451 1032l96 447h241l-153 -447h-184z" />
<glyph unicode="&#x201e;" horiz-adv-x="868" d="M82 -182l98 446h232l-152 -446h-178zM410 -182l96 446h233l-153 -446h-176z" />
<glyph unicode="&#x2020;" horiz-adv-x="925" d="M82 842v202h254v410h250v-410h258v-202h-258v-944h-250v944h-254z" />
<glyph unicode="&#x2021;" horiz-adv-x="983" d="M111 334v201h254v307h-254v202h254v410h249v-410h258v-202h-258v-307h258v-201h-258v-436h-249v436h-254z" />
<glyph unicode="&#x2022;" horiz-adv-x="1011" d="M164 596q0 141 100.5 241.5t241.5 100.5q142 0 242 -100.5t100 -241.5t-100 -241.5t-242 -100.5q-141 0 -241.5 100.5t-100.5 241.5z" />
<glyph unicode="&#x2026;" horiz-adv-x="1689" d="M135 0v262h252v-262h-252zM719 0v262h252v-262h-252zM1300 0v262h254v-262h-254z" />
<glyph unicode="&#x202f;" horiz-adv-x="369" />
<glyph unicode="&#x2030;" horiz-adv-x="2390" d="M94 1155q0 132 98 228t236 96q139 0 237.5 -95.5t98.5 -228.5q0 -135 -98 -229.5t-238 -94.5q-138 0 -236 94.5t-98 229.5zM147 0l1115 1454h239l-1116 -1454h-238zM293 1155q0 -57 39 -96t96 -39t97 39t40 96q0 56 -40 95.5t-97 39.5t-96 -39.5t-39 -95.5zM889 297 q0 133 97.5 228.5t236.5 95.5q138 0 237 -96t99 -228q0 -133 -99 -227.5t-237 -94.5q-139 0 -236.5 94t-97.5 228zM1087 299q0 -57 39.5 -96t96.5 -39t97 39t40 96q0 56 -40 95.5t-97 39.5t-96.5 -39.5t-39.5 -95.5zM1653 297q0 132 98 228t236 96t236.5 -96t98.5 -228 q0 -133 -98.5 -227.5t-236.5 -94.5t-236 94.5t-98 227.5zM1851 299q0 -57 39.5 -96t96.5 -39t97 39t40 96q0 56 -40 95.5t-97 39.5t-96.5 -39.5t-39.5 -95.5z" />
<glyph unicode="&#x2039;" horiz-adv-x="763" d="M82 578l336 421h248l-336 -421l336 -420h-248z" />
<glyph unicode="&#x203a;" horiz-adv-x="763" d="M98 158l336 420l-336 421h248l336 -421l-336 -420h-248z" />
<glyph unicode="&#x2044;" horiz-adv-x="368" d="M-254 0l688 1454h189l-686 -1454h-191z" />
<glyph unicode="&#x205f;" horiz-adv-x="461" />
<glyph unicode="&#x2070;" d="M70 1317q0 469 331 469q332 0 332 -469q0 -471 -332 -471q-331 0 -331 471zM264 1317q0 -293 137 -293q136 0 136 293q0 289 -136 289q-137 0 -137 -289z" />
<glyph unicode="&#x2074;" d="M31 1069v131l387 565h221v-528h119v-168h-119v-203h-193v203h-415zM227 1237h219v225q0 24 2 52t4 44l3 17h-4q-25 -55 -54 -96l-170 -238v-4z" />
<glyph unicode="&#x2075;" d="M74 983l106 137q30 -42 82.5 -69t106.5 -27q64 0 110.5 39t46.5 100t-47 101.5t-114 40.5q-80 0 -146 -37l-104 39l45 458h502v-172h-345l-10 -96l-8 -51l4 -2q46 16 105 16q137 0 226 -87.5t89 -211.5q0 -128 -94 -221.5t-246 -93.5q-88 0 -169.5 35.5t-139.5 101.5z " />
<glyph unicode="&#x2076;" d="M74 1266q0 94 26.5 184t76 166t131.5 123t184 47q111 0 200 -47l-57 -166q-64 33 -133 33q-77 0 -131.5 -55t-75.5 -144h4q53 43 129 43q141 0 224 -83.5t83 -211.5q0 -132 -85.5 -220.5t-223.5 -88.5q-149 0 -250.5 112.5t-101.5 307.5zM274 1227q0 -80 44.5 -141.5 t107.5 -61.5q55 0 86 38t31 95q0 63 -39 107.5t-107 44.5q-50 0 -86.5 -24.5t-36.5 -57.5z" />
<glyph unicode="&#x2077;" d="M92 1593v172h645v-133l-418 -766h-213l359 650l49 77v4q-37 -4 -80 -4h-342z" />
<glyph unicode="&#x2078;" d="M63 1126q0 40 15.5 77.5t40.5 67t45 48t41 33.5q-96 72 -96 184q0 118 88 184t211 66q78 0 146 -27.5t113.5 -86.5t45.5 -138q0 -100 -109 -221q127 -78 127 -203q0 -79 -47 -140.5t-121.5 -92.5t-161.5 -31t-162 30t-125.5 95.5t-50.5 154.5zM252 1137q0 -57 44 -91 t105 -34q53 0 94.5 30t41.5 78q0 19 -9 36.5t-21 29.5t-36 27t-40.5 23t-49.5 23t-49 23q-80 -70 -80 -145zM295 1528q0 -35 28 -64.5t53 -42.5t87 -41q2 -2 4 -2.5t4 -1.5q59 74 59 146q0 45 -37 70.5t-87 25.5q-47 0 -79 -23t-32 -67z" />
<glyph unicode="&#x2079;" d="M66 1477q0 132 85.5 220.5t223.5 88.5q149 0 250.5 -113.5t101.5 -308.5q0 -73 -16 -146t-50 -140t-82 -118.5t-118 -82.5t-152 -31q-49 0 -105 12.5t-95 34.5l57 166q72 -33 133 -33q77 0 131.5 54t75.5 143h-4q-57 -43 -129 -43q-141 0 -224 84.5t-83 212.5zM258 1475 q0 -64 38.5 -109t104.5 -45q51 0 88 25t37 57q0 80 -44 141.5t-107 61.5q-55 0 -86 -37.5t-31 -93.5z" />
<glyph unicode="&#x2080;" d="M70 129q0 469 331 469q332 0 332 -469q0 -471 -332 -471q-331 0 -331 471zM264 129q0 -293 137 -293q136 0 136 293q0 289 -136 289q-137 0 -137 -289z" />
<glyph unicode="&#x2081;" d="M115 354l231 224h172v-730h187v-170h-570v170h189v424l4 58h-4q-8 -19 -31 -39l-64 -60z" />
<glyph unicode="&#x2082;" d="M80 -238q0 72 23.5 132t61 101t82.5 75.5t90 62t82.5 53.5t61 57.5t23.5 67.5q0 47 -36 77t-89 30q-82 0 -164 -94l-127 112q46 71 128 116.5t173 45.5q129 0 220 -75.5t91 -203.5q0 -69 -29 -126t-72.5 -93t-95 -70t-96.5 -58.5t-76.5 -56.5t-35.5 -67h418v-170h-625 q-8 58 -8 84z" />
<glyph unicode="&#x2083;" d="M66 -205l100 137q32 -41 87 -68.5t114 -27.5q62 0 104.5 37t42.5 92t-47.5 86t-112.5 31h-71l-41 92l159 184l52 50v4q-41 -6 -74 -6h-264v172h573v-125l-201 -230q101 -20 162.5 -87t61.5 -173q0 -124 -92 -214.5t-242 -90.5q-89 0 -173.5 35.5t-137.5 101.5z" />
<glyph unicode="&#x2084;" d="M31 12l387 566h221v-529h119v-168h-119v-203h-193v203h-415v131zM227 49h219v225q0 24 2 52t4 44l3 17h-4q-25 -55 -54 -96l-170 -238v-4z" />
<glyph unicode="&#x2085;" d="M74 -205l106 137q30 -42 82.5 -69t106.5 -27q64 0 110.5 39t46.5 100t-47 101.5t-114 40.5q-80 0 -146 -37l-104 39l45 459h502v-172h-345l-10 -97l-8 -51l4 -2q46 16 105 16q137 0 226 -87.5t89 -211.5q0 -128 -94 -221.5t-246 -93.5q-88 0 -169.5 35.5t-139.5 101.5z " />
<glyph unicode="&#x2086;" d="M74 78q0 94 26.5 184t76 166t131.5 123t184 47q111 0 200 -47l-57 -166q-64 33 -133 33q-77 0 -131.5 -55t-75.5 -144h4q53 43 129 43q141 0 224 -83.5t83 -211.5q0 -132 -85.5 -220.5t-223.5 -88.5q-149 0 -250.5 112.5t-101.5 307.5zM274 39q0 -80 44.5 -141.5 t107.5 -61.5q55 0 86 38t31 95q0 63 -39 107.5t-107 44.5q-50 0 -86.5 -24.5t-36.5 -57.5z" />
<glyph unicode="&#x2087;" d="M92 406v172h645v-134l-418 -766h-213l359 650l49 78v4q-37 -4 -80 -4h-342z" />
<glyph unicode="&#x2088;" d="M63 -59q0 123 142 225q-96 72 -96 184q0 118 88 184t211 66q78 0 146 -27.5t113.5 -86.5t45.5 -138q0 -100 -109 -221q127 -78 127 -203q0 -79 -47 -140.5t-121.5 -92.5t-161.5 -31t-162 30.5t-125.5 96t-50.5 154.5zM252 -49q0 -57 44 -91t105 -34q53 0 94.5 30t41.5 78 q0 19 -9 36.5t-21 29.5t-36 27t-40.5 23t-49.5 23t-49 23q-80 -70 -80 -145zM295 342q0 -35 28 -64.5t53 -42.5t87 -41q2 -2 4 -2.5t4 -1.5q59 74 59 146q0 45 -37 70.5t-87 25.5q-47 0 -79 -23t-32 -67z" />
<glyph unicode="&#x2089;" d="M66 289q0 132 85.5 220.5t223.5 88.5q149 0 250.5 -113.5t101.5 -308.5q0 -73 -16 -146t-50 -140t-82 -118.5t-118 -82.5t-152 -31q-49 0 -105 12.5t-95 34.5l57 166q72 -33 133 -33q77 0 131.5 54t75.5 143h-4q-57 -43 -129 -43q-141 0 -224 84.5t-83 212.5zM258 287 q0 -64 38.5 -109t104.5 -45q51 0 88 25t37 57q0 80 -44 141.5t-107 61.5q-55 0 -86 -37.5t-31 -93.5z" />
<glyph unicode="&#x20ac;" horiz-adv-x="1200" d="M53 512v156h115q-9 52 -2 127h-113v157h142q67 233 258.5 380t441.5 147q97 0 219 -27l-63 -240q-68 21 -162 21q-145 0 -254.5 -75.5t-157.5 -205.5h522l-32 -157h-527q-8 -55 2 -127h500l-31 -156h-424q50 -132 160.5 -209.5t251.5 -77.5q93 0 188 29l50 -242 q-106 -37 -242 -37q-259 0 -447.5 148t-252.5 389h-142z" />
<glyph unicode="&#x2116;" horiz-adv-x="2222" d="M168 0v1454h264l549 -840q24 -38 54.5 -94.5t48.5 -93.5l18 -37h4q-14 139 -14 225v840h264v-1454h-262l-553 838q-24 38 -54 94.5t-49 93.5l-18 37h-4q14 -139 14 -225v-838h-262zM1499 950q0 130 91 221t225 91q131 0 222 -91t91 -221t-90.5 -219.5t-222.5 -89.5 q-135 0 -225.5 89t-90.5 220zM1518 350v180h585v-180h-585zM1690 952q0 -56 35.5 -93.5t89.5 -37.5t89 37.5t35 93.5q0 54 -35 90.5t-89 36.5t-89.5 -36.5t-35.5 -90.5z" />
<glyph unicode="&#x2122;" horiz-adv-x="2056" d="M119 1282v172h801v-172h-302v-735h-194v735h-305zM975 547l72 907h182l186 -428q7 -16 14.5 -37.5t10.5 -34.5l4 -14h4q13 51 27 86l188 428h182l68 -907h-195l-35 467q-1 16 0 30t2 24l1 9h-5l-157 -364h-156l-160 364h-4l2 -63l-35 -467h-196z" />
<glyph unicode="&#x2212;" horiz-adv-x="1200" d="M59 483v203h1082v-203h-1082z" />
<glyph unicode="&#x221e;" horiz-adv-x="1011" d="M115 715q0 162 114.5 276.5t276.5 114.5q163 0 277 -114t114 -277q0 -162 -114.5 -277.5t-276.5 -115.5q-161 0 -276 116t-115 277z" />
<glyph unicode="&#x2248;" horiz-adv-x="1200" d="M76 393q158 154 321 154q53 0 101.5 -15t84 -36t69.5 -42t72.5 -36t78.5 -15q58 0 117 32.5t102 80.5l100 -154q-65 -65 -147.5 -109t-171.5 -44q-65 0 -124.5 22.5t-97 49t-87 49t-97.5 22.5q-111 0 -219 -112zM76 811q156 156 321 156q53 0 101.5 -15t84 -36t69.5 -42 t72.5 -36t78.5 -15q58 0 117 32.5t102 80.5l100 -154q-64 -66 -147 -110.5t-172 -44.5q-65 0 -124.5 22.5t-97 49t-87 49t-97.5 22.5q-112 0 -219 -111z" />
<glyph unicode="&#x2260;" horiz-adv-x="1200" d="M98 274v201h340l152 219h-492v201h625l156 229l125 -82l-103 -147h199v-201h-330l-152 -219h482v-201h-613l-153 -225l-127 80l100 145h-209z" />
<glyph unicode="&#x2264;" horiz-adv-x="1200" d="M92 502v168l985 438v-227l-710 -293v-4l710 -293v-228zM96 -174h981v-201h-981v201z" />
<glyph unicode="&#x2265;" horiz-adv-x="1200" d="M123 63v228l708 293v4l-708 293v227l985 -438v-168zM123 -174h981v-201h-981v201z" />
<glyph unicode="&#x25fc;" horiz-adv-x="1044" d="M0 0v1044h1044v-1044h-1044z" />
<glyph unicode="&#xf6c3;" horiz-adv-x="686" d="M225 -422q41 108 41 178q0 66 -24 131h215q14 -57 14 -110q0 -90 -53 -199h-193z" />
<glyph unicode="&#xf6d4;" horiz-adv-x="755" d="M39 1802v27h199v-27q0 -62 40.5 -95.5t96.5 -33.5t97.5 34t41.5 97v25h197v-27q0 -130 -98 -206t-238 -76t-238 76t-98 206z" />
<glyph unicode="&#xf8ff;" horiz-adv-x="2314" d="M86 449v569l258 145v310l543 290l274 -145l271 145l542 -290v-310l254 -145v-569l-254 -148v-311l-542 -289l-271 145l-274 -145l-543 289v311zM193 477l233 -131v-285l487 -258l248 136l242 -136l487 258v285l234 131v510l-234 135v279l-487 258l-242 -131l-248 131 l-487 -258v-279l-233 -135v-510zM293 502v461l203 118v252l440 234l225 -121l219 121l439 -234v-252l204 -118v-461l-204 -123v-248l-439 -233l-219 118l-225 -118l-440 233v248zM782 1128h133v-942h89v467h466v82h-466v393h407q34 0 46.5 -13t12.5 -46v-86h86v111 q0 61 -26.5 88.5t-91.5 27.5h-656v-82z" />
<glyph horiz-adv-x="1200" d="M74 729q0 130 16.5 239t55.5 205t98.5 162.5t150.5 105t207 38.5t207 -38.5t150 -105t97.5 -162.5t55 -205t16.5 -239t-16.5 -239.5t-55 -206t-97.5 -164t-150 -106t-207 -38.5t-207 38.5t-150.5 106t-98.5 164t-55.5 206t-16.5 239.5zM346 729q0 -512 256 -512t256 512 q0 506 -256 506t-256 -506z" />
<glyph horiz-adv-x="1200" d="M162 1104l364 350h232v-1227h315v-227h-889v227h318v807l2 99h-4q-19 -35 -66 -82l-117 -111z" />
<glyph horiz-adv-x="1200" d="M109 129q0 106 37.5 198.5t97.5 158.5t132 124t144.5 107t132.5 95.5t97.5 101t37.5 112.5q0 93 -63 148t-158 55q-80 0 -150 -48.5t-112 -123.5l-196 131q69 127 192.5 209t288.5 82q129 0 235 -49.5t172 -148.5t66 -232q0 -95 -36 -177.5t-93.5 -142.5t-127.5 -113 t-140.5 -98.5t-129.5 -89t-97 -95t-40 -106.5h686v-227h-964q-12 70 -12 129z" />
<glyph horiz-adv-x="1200" d="M90 170l135 203q63 -64 151.5 -106t180.5 -42q112 0 186 61.5t74 155.5q0 110 -87 168t-224 58h-100l-58 135l266 315q24 30 50.5 58t40.5 40l14 13v4q-45 -6 -129 -6h-434v227h886v-166l-354 -411q77 -11 146.5 -43.5t126 -84t89.5 -128.5t33 -168q0 -94 -35 -179.5 t-98.5 -152.5t-162 -106.5t-216.5 -39.5q-133 0 -260.5 50.5t-220.5 144.5z" />
<glyph horiz-adv-x="1200" d="M27 375v162l628 917h312v-860h188v-219h-188v-375h-260v375h-680zM305 594h402v450q0 32 2.5 70t4.5 60l3 22h-4q-33 -78 -72 -133l-336 -465v-4z" />
<glyph horiz-adv-x="1200" d="M104 172l138 199q57 -62 137 -104t172 -42q111 0 191.5 68.5t80.5 179.5q0 113 -82.5 182.5t-208.5 69.5q-122 0 -225 -61l-147 53l67 737h766v-227h-536l-23 -240l-10 -67h4q22 11 70 21.5t86 10.5q234 0 373 -137t139 -340q0 -215 -149.5 -357.5t-375.5 -142.5 q-133 0 -256 51t-211 146z" />
<glyph horiz-adv-x="1200" d="M88 664q0 117 26 232t80.5 220.5t132 186t189 128.5t242.5 48q169 0 299 -62l-78 -227q-31 18 -93 31.5t-114 13.5q-82 0 -150.5 -32.5t-114.5 -88t-76 -123.5t-44 -145h4q36 44 115 73t158 29q139 0 246.5 -67t162.5 -177t55 -243t-58.5 -243.5t-168.5 -176.5t-250 -66 q-114 0 -216 47t-179 133t-122.5 218t-45.5 291zM362 567q0 -82 37.5 -162t105.5 -134t148 -54q96 0 155.5 70t59.5 174q0 117 -70 193.5t-196 76.5q-99 0 -169.5 -44t-70.5 -120z" />
<glyph horiz-adv-x="1200" d="M117 1227v227h999v-184l-637 -1270h-274l545 1094q21 40 42 73t32 47l10 13v4q-23 -4 -97 -4h-620z" />
<glyph horiz-adv-x="1200" d="M78 420q0 58 18 113.5t42.5 95t58.5 76.5t56.5 56t45.5 36q-152 117 -152 282q0 79 29 149.5t84.5 127t147 90t206.5 33.5q207 0 339 -109t132 -293q0 -59 -18.5 -119.5t-47.5 -109.5t-51.5 -79.5t-43.5 -53.5q88 -57 137 -129.5t49 -177.5q0 -84 -35 -161.5t-99 -138.5 t-163 -97t-217 -36q-230 0 -374 128t-144 317zM348 440q0 -99 73.5 -165t174.5 -66q104 0 175 58t71 151q0 32 -16 61t-37.5 49t-62 43.5t-71 37.5t-85.5 38.5t-85 38.5q-137 -117 -137 -246zM408 1075q0 -20 5 -39t12 -34t22 -31t26.5 -27t34.5 -25.5t37 -22.5t43 -21.5 t43.5 -20t48 -21t47.5 -20.5q100 122 100 244q0 86 -60 136t-159 50q-95 0 -147.5 -47.5t-52.5 -120.5z" />
<glyph horiz-adv-x="1200" d="M70 991q0 134 58.5 245t169 177t251.5 66q114 0 215.5 -47t178.5 -133.5t122 -218.5t45 -292q0 -116 -26 -230.5t-80.5 -220t-132 -186t-189 -128.5t-242.5 -48q-170 0 -297 62l78 227q96 -47 205 -47q83 0 151.5 32.5t114.5 88t76.5 123t44.5 145.5h-4 q-36 -44 -114.5 -73t-157.5 -29q-139 0 -247 67.5t-164 177.5t-56 242zM332 991q0 -116 70.5 -193t195.5 -77q99 0 169.5 46t70.5 112q0 138 -87 247t-200 109q-100 0 -159.5 -69t-59.5 -175z" />
<glyph horiz-adv-x="884" d="M135 598v227h615v-227h-615z" />
<glyph horiz-adv-x="630" d="M98 764q0 430 244 815h219q-231 -388 -231 -817q0 -465 231 -895h-219q-116 190 -180 420t-64 477z" />
<glyph horiz-adv-x="630" d="M70 -133q231 430 231 895q0 429 -231 817h219q243 -383 243 -815q0 -248 -63.5 -478t-179.5 -419h-219z" />
<glyph horiz-adv-x="657" d="M164 -133v1712h403v-188h-182v-1336h182v-188h-403z" />
<glyph horiz-adv-x="657" d="M90 55h182v1336h-182v188h404v-1712h-404v188z" />
<glyph horiz-adv-x="759" d="M76 618v228q83 12 128.5 68t45.5 149v176q0 64 14 117t37 88t55 61.5t64 41.5t69.5 24t65.5 11.5t57 2.5l64 -2v-192q-17 2 -37 2q-26 0 -50 -6t-52.5 -22t-46 -53.5t-17.5 -92.5v-224q0 -91 -46.5 -160.5t-123.5 -99.5v-4q77 -29 123.5 -93t46.5 -165v-246 q0 -45 12.5 -78.5t30 -51t42 -28.5t43 -13.5t38.5 -2.5l37 2v-192q-27 -4 -64 -4q-35 0 -68 4.5t-77 16t-80.5 36.5t-68.5 61.5t-50 95.5t-18 134v199q0 88 -44 144t-130 68z" />
<glyph horiz-adv-x="759" d="M84 55q14 -2 37 -2q20 0 38.5 2.5t43 13.5t42 28.5t30 51t12.5 78.5v246q0 90 44 161.5t124 96.5v4q-69 25 -118.5 95t-49.5 165v224q0 55 -17.5 92.5t-46 53.5t-52.5 22t-50 6l-37 -2v192q24 2 63 2q42 0 82.5 -5.5t93.5 -27t91.5 -57t66 -101.5t27.5 -155v-176 q0 -87 44.5 -147t129.5 -70v-228q-81 -7 -127.5 -66.5t-46.5 -145.5v-199q0 -89 -27.5 -156t-66 -102.5t-91.5 -57t-93.5 -27t-82.5 -5.5l-63 4v192z" />
<glyph horiz-adv-x="1669" d="M106 721q0 157 60 298.5t162.5 243.5t245.5 162t303 60q122 0 219 -24t160.5 -65t105.5 -99t60 -122t18 -137v-512h149v-186h-567q-100 0 -184.5 32t-139.5 85t-85.5 121.5t-30.5 142.5q0 154 119 264.5t321 110.5h174q-1 79 -89 129.5t-222 50.5q-145 0 -266 -78 t-189 -205t-68 -272q0 -112 39.5 -212t110 -174.5t176.5 -118.5t232 -44v-203q-180 0 -333 58.5t-258 159.5t-164 239.5t-59 294.5zM842 727q0 -85 54.5 -143t141.5 -58h158v402h-154q-90 0 -145 -58.5t-55 -142.5z" />
<glyph horiz-adv-x="1222" d="M82 700l336 422h248l-336 -422l336 -419h-248zM543 700l336 422h247l-335 -422l335 -419h-247z" />
<glyph horiz-adv-x="1222" d="M96 281l336 419l-336 422h248l336 -422l-336 -419h-248zM557 281l336 419l-336 422h248l336 -422l-336 -419h-248z" />
<glyph horiz-adv-x="763" d="M82 700l336 422h248l-336 -422l336 -419h-248z" />
<glyph horiz-adv-x="763" d="M96 281l336 419l-336 422h248l336 -422l-336 -419h-248z" />
<glyph horiz-adv-x="1402" d="M135 606v203h1133v-203h-1133z" />
<glyph horiz-adv-x="1812" d="M135 606v203h1542v-203h-1542z" />
<glyph horiz-adv-x="520" d="M135 578v260h250v-260h-250z" />
<glyph horiz-adv-x="991" d="M82 354q0 69 19.5 127.5t51.5 100.5t70 79t76 69.5t70 65t51.5 72t19.5 84.5v80h250v-98q0 -70 -25 -129.5t-62 -98.5t-81 -79.5t-81 -73.5t-62 -78.5t-25 -95.5q0 -72 57 -121t142 -49q113 0 217 86l145 -178q-67 -64 -167.5 -106t-217.5 -42t-218 44.5t-165.5 134 t-64.5 206.5zM440 1208v244h252v-244h-252z" />
<glyph horiz-adv-x="587" d="M160 -2l20 1034h228l20 -1034h-268zM168 1208v244h252v-244h-252z" />
<glyph horiz-adv-x="1007" d="M162 725q0 141 100.5 241.5t241.5 100.5q142 0 242 -100.5t100 -241.5t-100 -241.5t-242 -100.5q-141 0 -241.5 100.5t-100.5 241.5z" />
<glyph horiz-adv-x="1198" d="M94 561q0 91 18.5 175t58.5 160t98 132.5t143 89.5t188 33q102 0 187 -33.5t143 -90t98 -133t58 -160.5t18 -175q0 -90 -18.5 -174t-58 -159t-97.5 -130.5t-143 -88t-187 -32.5q-128 0 -227.5 50t-159 134t-89.5 186t-30 216zM356 563q0 -71 14 -134.5t42 -116.5 t76.5 -84t111.5 -31t111 31t75.5 83.5t41.5 115.5t14 134q0 97 -23 177t-79.5 136t-139.5 56q-84 0 -141 -55.5t-80 -135t-23 -176.5z" />
<glyph horiz-adv-x="1019" d="M76 889l383 237h225v-905h279v-221h-834v221h303v510l2 133h-4q-31 -32 -78 -61l-157 -92z" />
<glyph horiz-adv-x="1120" d="M84 944q76 89 202 148t263 59q179 0 302.5 -98t123.5 -260q0 -72 -24.5 -139t-65.5 -123t-105 -112.5t-130.5 -102.5t-155.5 -99v-4q45 8 129 8h405v-221h-915v176q98 63 171.5 113.5t158.5 116.5t140 122t91.5 117t36.5 113q0 83 -57 124.5t-140 41.5 q-78 0 -154.5 -42.5t-140.5 -107.5z" />
<glyph horiz-adv-x="1105" d="M57 -82l123 182q60 -60 143 -100.5t175 -40.5q114 0 188 58t74 153q0 57 -27.5 101t-72.5 70t-97.5 39t-107.5 13h-113l-57 127l258 301q20 24 42.5 45.5t34.5 31.5l13 9v4q-45 -8 -129 -8h-369v223h842v-151l-359 -395q77 -10 147 -38.5t128.5 -75.5t93.5 -119.5 t35 -160.5q0 -92 -35.5 -173.5t-100.5 -142.5t-163 -96.5t-217 -35.5q-126 0 -245 46t-204 134z" />
<glyph horiz-adv-x="1228" d="M49 59v162l594 905h322v-845h194v-222h-194v-297h-260v297h-656zM328 281h377v444q0 32 2.5 70t4.5 60l3 22h-4q-33 -81 -72 -138z" />
<glyph horiz-adv-x="1114" d="M74 -74l121 180q56 -62 138.5 -100.5t168.5 -38.5q111 0 194.5 61.5t83.5 172.5q0 113 -81.5 177t-200.5 64q-59 0 -117 -14t-87 -28l-28 -13l-139 51l68 688h737v-223h-516l-23 -221q-1 -16 -3.5 -32t-4.5 -24l-2 -8h4q70 29 158 29q225 0 361 -121.5t136 -312.5 q0 -212 -146.5 -339.5t-375.5 -127.5q-126 0 -244 46t-202 134z" />
<glyph horiz-adv-x="1218" d="M102 610q0 111 25 220t78 210.5t128.5 178.5t185.5 123.5t239 46.5q164 0 297 -58l-78 -207q-91 43 -205 43q-80 0 -147.5 -32.5t-114 -87t-77 -120.5t-44.5 -139h4q37 45 117 73t160 28q205 0 331.5 -131.5t126.5 -321.5q0 -126 -58 -230.5t-167 -167.5t-248 -63 q-114 0 -213.5 42t-175.5 120.5t-120 200.5t-44 272zM371 535q0 -130 82 -234t202 -104q98 0 155.5 65.5t57.5 171.5q0 107 -69.5 178.5t-192.5 71.5q-97 0 -166 -43t-69 -106z" />
<glyph horiz-adv-x="1071" d="M61 905v221h977v-174l-610 -1190h-272l518 1020q19 38 37.5 69.5t27.5 43.5l9 12v4q-21 -6 -95 -6h-592z" />
<glyph horiz-adv-x="1212" d="M98 395q0 191 215 353q-149 107 -149 266q0 73 28 138.5t82 118.5t142.5 84t199.5 31q200 0 329.5 -101.5t129.5 -274.5q0 -55 -17.5 -113t-45.5 -104.5t-48 -74.5t-38 -48q86 -56 134 -124t48 -163q0 -80 -35 -153t-97.5 -130t-159.5 -91t-212 -34q-225 0 -365.5 121 t-140.5 299zM356 416q0 -96 73 -158.5t175 -62.5t172 54.5t70 141.5q0 30 -15.5 56.5t-35.5 45.5t-60.5 41t-69 35t-83 36t-82.5 36q-144 -107 -144 -225zM414 1010q0 -34 15.5 -63.5t39.5 -51t62 -43t74.5 -37.5t84.5 -36q8 -3 12.5 -5t11.5 -5t13 -5q98 115 98 229 q0 79 -58.5 126.5t-154.5 47.5q-94 0 -146 -44t-52 -113z" />
<glyph horiz-adv-x="1183" d="M74 688q0 195 132 329t341 134q115 0 214.5 -42t175.5 -120.5t119.5 -201t43.5 -273.5q0 -111 -25 -220t-78 -209.5t-128.5 -177.5t-185.5 -123t-239 -46q-169 0 -297 57l78 207q88 -43 205 -43q80 0 147.5 32.5t114 87t77 120t44.5 137.5h-4q-37 -43 -116 -70.5 t-158 -27.5q-138 0 -244 61.5t-161.5 163t-55.5 225.5zM334 692q0 -107 69.5 -178.5t192.5 -71.5q98 0 166.5 42.5t68.5 105.5q0 131 -82 235.5t-202 104.5q-98 0 -155.5 -66t-57.5 -172z" />
<glyph horiz-adv-x="1200" d="M94 561q0 91 18.5 175t58.5 160t98 132.5t143 89.5t188 33q102 0 187 -33.5t143 -90t98 -133t58 -160.5t18 -175q0 -90 -18.5 -174t-58 -159t-97.5 -130.5t-143 -88t-187 -32.5q-128 0 -227.5 50t-159 134t-89.5 186t-30 216zM356 563q0 -71 14 -134.5t42 -116.5 t76.5 -84t111.5 -31t111 31t75.5 83.5t41.5 115.5t14 134q0 97 -23 177t-79.5 136t-139.5 56q-84 0 -141 -55.5t-80 -135t-23 -176.5z" />
<glyph horiz-adv-x="1200" d="M166 889l383 237h225v-905h279v-221h-834v221h303v510l2 133h-4q-31 -32 -78 -61l-157 -92z" />
<glyph horiz-adv-x="1200" d="M125 944q76 89 202 148t263 59q179 0 302.5 -98t123.5 -260q0 -72 -24.5 -139t-65.5 -123t-105 -112.5t-130.5 -102.5t-155.5 -99v-4q45 8 129 8h405v-221h-915v176q98 63 171.5 113.5t158.5 116.5t140 122t91.5 117t36.5 113q0 83 -57 124.5t-140 41.5 q-78 0 -154.5 -42.5t-140.5 -107.5z" />
<glyph horiz-adv-x="1200" d="M106 -80l123 182q60 -60 142.5 -100.5t173.5 -40.5q114 0 188 58t74 153q0 57 -27.5 101t-72.5 69.5t-97.5 38t-107.5 12.5h-111l-57 127l256 301q20 24 42.5 45.5t35.5 31.5l12 9v4q-45 -8 -129 -8h-367v223h840v-151l-358 -395q77 -10 146.5 -38.5t128 -75.5t93.5 -119 t35 -159q0 -92 -35.5 -173.5t-100.5 -142.5t-163 -96.5t-217 -35.5q-124 0 -243 46t-204 134z" />
<glyph horiz-adv-x="1200" d="M37 59v162l594 905h321v-845h195v-222h-195v-297h-260v297h-655zM315 281h377v444q0 32 2.5 70t5.5 60l2 22h-4q-32 -81 -71 -138z" />
<glyph horiz-adv-x="1200" d="M117 -74l121 180q56 -62 138.5 -100.5t168.5 -38.5q111 0 194.5 61.5t83.5 172.5q0 113 -81.5 177t-200.5 64q-59 0 -117 -14t-86 -28l-29 -13l-139 51l68 688h737v-223h-516l-23 -221q-1 -16 -3.5 -32t-4.5 -24l-2 -8h4q70 29 158 29q225 0 361 -121.5t136 -312.5 q0 -212 -146.5 -339.5t-375.5 -127.5q-126 0 -244 46t-202 134z" />
<glyph horiz-adv-x="1200" d="M96 610q0 111 25 220t78 210.5t128.5 178.5t185.5 123.5t239 46.5q164 0 297 -58l-78 -207q-91 43 -205 43q-80 0 -147.5 -32.5t-114 -87t-77 -120.5t-44.5 -139h4q37 45 117 73t160 28q205 0 331.5 -131.5t126.5 -321.5q0 -126 -58 -230.5t-167 -167.5t-248 -63 q-114 0 -213.5 42t-175.5 120.5t-120 200.5t-44 272zM365 535q0 -130 82 -234t202 -104q98 0 155.5 65.5t57.5 171.5q0 107 -69.5 178.5t-192.5 71.5q-97 0 -166 -43t-69 -106z" />
<glyph horiz-adv-x="1200" d="M125 905v221h977v-174l-610 -1190h-273l518 1020q19 38 37.5 69.5t27.5 43.5l9 12v4q-20 -6 -94 -6h-592z" />
<glyph horiz-adv-x="1200" d="M92 395q0 191 215 353q-149 107 -149 266q0 73 28 138.5t82 118.5t142.5 84t199.5 31q200 0 329.5 -101.5t129.5 -274.5q0 -55 -17.5 -113t-45.5 -104.5t-48 -74.5t-38 -48q86 -56 134 -124t48 -163q0 -80 -35 -153t-97.5 -130t-159.5 -91t-212 -34q-225 0 -365.5 121 t-140.5 299zM350 416q0 -96 73 -158.5t175 -62.5t172 54.5t70 141.5q0 30 -15.5 56.5t-35.5 45.5t-60.5 41t-69 35t-83 36t-82.5 36q-144 -107 -144 -225zM408 1010q0 -34 15.5 -63.5t39.5 -51t62 -43t74.5 -37.5t84.5 -36q8 -3 12.5 -5t11.5 -5t13 -5q98 115 98 229 q0 79 -58.5 126.5t-154.5 47.5q-94 0 -146 -44t-52 -113z" />
<glyph horiz-adv-x="1200" d="M80 688q0 195 132 329t341 134q115 0 214.5 -42t175.5 -120.5t119.5 -201t43.5 -273.5q0 -111 -24.5 -220t-78 -209.5t-129 -177.5t-185 -123t-238.5 -46q-169 0 -297 57l77 207q88 -43 205 -43q80 0 147.5 32.5t114 87t77 120t44.5 137.5h-4q-37 -43 -116 -70.5 t-158 -27.5q-138 0 -244 61.5t-161.5 163t-55.5 225.5zM340 692q0 -107 69.5 -178.5t192.5 -71.5q98 0 167 43t69 105q0 131 -82.5 235.5t-202.5 104.5q-98 0 -155.5 -66t-57.5 -172z" />
<glyph horiz-adv-x="1077" d="M80 172l127 193q60 -67 147.5 -112.5t175.5 -45.5q85 0 136 33.5t51 93.5q0 36 -33 65.5t-85 53t-115.5 48.5t-127 57t-115.5 71.5t-85 101t-33 137.5q0 137 95 225.5t249 112.5v183h176v-181q195 -21 315 -127l-100 -207q-52 49 -128 79t-150 30q-85 0 -136 -30.5 t-51 -96.5q0 -34 33 -62.5t85 -50.5t115.5 -45.5t127 -55t115.5 -71t85 -102t33 -139.5q0 -132 -95.5 -227.5t-256.5 -118.5v-191h-176v189q-107 14 -207.5 63.5t-171.5 126.5z" />
<glyph horiz-adv-x="1136" d="M88 612q0 187 114 325.5t306 174.5v172h182v-162q198 -19 344 -159l-121 -191q-45 55 -116 89t-144 34q-138 0 -222.5 -81t-84.5 -198q0 -121 84 -202.5t223 -81.5q71 0 139 32.5t121 88.5l119 -189q-60 -66 -151.5 -107.5t-190.5 -52.5v-161h-182v170 q-193 36 -306.5 173.5t-113.5 325.5z" />
<glyph horiz-adv-x="1241" d="M106 0v221h121v264h-90v172h90v144q0 118 64 213t174.5 147.5t245.5 52.5q214 0 372 -116l-118 -193q-50 36 -117.5 57t-132.5 21q-96 0 -161 -54t-65 -132v-140h416v-172h-416v-264h637v-221h-1020z" />
<glyph horiz-adv-x="1314" d="M94 1190h299l172 -324q19 -39 41 -89t34 -81l13 -30h4q45 112 88 200l173 324h299l-265 -447h178v-155h-268l-76 -129v-33h344v-156h-344v-270h-262v270h-336v156h336v33l-75 129h-261v155h170z" />
<glyph horiz-adv-x="1136" d="M37 -25q92 -12 137 -12q26 0 50 3.5t54.5 15.5t53 31.5t40 55.5t21.5 83l39 440h-156v207h173l18 202q9 98 46.5 171.5t85.5 113.5t111.5 64.5t113.5 31.5t102 7q32 0 76 -4.5t72 -8.5l28 -4v-221q-111 14 -160 14q-27 0 -51 -3.5t-54.5 -15t-53 -31t-39.5 -55.5t-21 -83 l-18 -178h223v-207h-242l-39 -465q-9 -98 -46.5 -172t-85.5 -113.5t-111.5 -64t-112.5 -31t-101 -6.5q-30 0 -68.5 3.5t-61.5 6.5l-23 4v221z" />
<glyph horiz-adv-x="1222" d="M96 393v144h133q-6 42 -2 112h-131v144h156q28 88 80.5 162.5t129.5 133.5t185 92t236 33q103 0 202 -24l-57 -209q-68 20 -151 20q-129 0 -218 -57t-131 -151h461l-31 -144h-471q-6 -57 5 -112h448l-27 -144h-370q44 -90 132 -145t212 -55q98 0 178 28l43 -211 q-100 -35 -225 -35q-242 0 -403 117t-224 301h-160z" />
<glyph d="M70 1008q0 469 331 469q332 0 332 -469q0 -471 -332 -471q-331 0 -331 471zM264 1008q0 -293 137 -293q136 0 136 293q0 288 -136 288q-137 0 -137 -288z" />
<glyph d="M115 1233l231 223h172v-729h187v-170h-570v170h189v424l4 57h-4q-8 -19 -31 -39l-64 -59z" />
<glyph d="M80 641q0 72 23.5 132t61 101t82.5 75.5t90 62t82.5 53.5t61 57.5t23.5 67.5q0 47 -36 76.5t-89 29.5q-82 0 -164 -94l-127 113q46 71 128 116.5t173 45.5q129 0 220 -75.5t91 -203.5q0 -69 -29 -126t-72.5 -93t-95 -70t-96.5 -58.5t-76.5 -56.5t-35.5 -67h418v-170h-625 q-8 58 -8 84z" />
<glyph d="M66 674l100 137q32 -41 87 -68.5t114 -27.5q62 0 104.5 37t42.5 92t-47.5 86t-112.5 31h-71l-41 92l159 184l52 49v4q-41 -6 -74 -6h-264v172h573v-125l-201 -229q101 -20 162.5 -87t61.5 -173q0 -124 -92 -214.5t-242 -90.5q-89 0 -173.5 35.5t-137.5 101.5z" />
<glyph d="M31 760v131l387 565h221v-528h119v-168h-119v-203h-193v203h-415zM227 928h219v225q0 24 2 52t4 45l3 16h-4q-25 -56 -54 -97l-170 -237v-4z" />
<glyph d="M74 674l106 137q30 -42 82.5 -69t106.5 -27q64 0 110.5 39t46.5 100t-47 101t-114 40q-80 0 -146 -37l-104 39l45 459h502v-172h-345l-10 -96l-8 -51l4 -2q46 16 105 16q137 0 226 -87.5t89 -211.5q0 -128 -94 -221.5t-246 -93.5q-88 0 -169.5 35.5t-139.5 101.5z" />
<glyph d="M74 956q0 94 26.5 184t76 166.5t131.5 123.5t184 47q111 0 200 -47l-57 -166q-62 32 -133 32q-77 0 -131.5 -54.5t-75.5 -143.5h4q53 43 129 43q141 0 224 -83.5t83 -211.5q0 -132 -85.5 -220.5t-223.5 -88.5q-149 0 -250.5 112t-101.5 307zM274 918q0 -80 44.5 -141.5 t107.5 -61.5q55 0 86 38t31 95q0 63 -39 107t-107 44q-51 0 -87 -24t-36 -57z" />
<glyph d="M92 1284v172h645v-133l-418 -766h-213l359 649l49 78v4q-37 -4 -80 -4h-342z" />
<glyph d="M63 815q0 123 142 225q-96 72 -96 185q0 118 88 184t211 66q78 0 146 -27.5t113.5 -86.5t45.5 -138q0 -101 -109 -222q127 -78 127 -202q0 -79 -47 -140.5t-121.5 -92.5t-161.5 -31t-162 30t-125.5 95.5t-50.5 154.5zM252 825q0 -57 44 -91t105 -34q53 0 94.5 30t41.5 79 q0 19 -9 36.5t-21 29.5t-36 27t-40.5 23t-49.5 23t-49 23q-80 -70 -80 -146zM295 1217q0 -35 28 -64.5t53 -42.5t87 -41q2 -2 4 -2.5t4 -1.5q59 74 59 145q0 45 -37.5 71t-86.5 26q-47 0 -79 -23t-32 -67z" />
<glyph d="M66 1167q0 132 85.5 221t223.5 89q149 0 250.5 -113.5t101.5 -308.5q0 -73 -16 -146t-50 -140t-82 -118.5t-118 -82.5t-152 -31q-49 0 -105 12.5t-95 34.5l57 166q72 -33 133 -33q77 0 131.5 53.5t75.5 142.5h-4q-57 -43 -129 -43q-141 0 -224 84.5t-83 212.5zM258 1165 q0 -63 38.5 -108t104.5 -45q51 0 88 25t37 57q0 80 -44 141t-107 61q-55 0 -86 -37.5t-31 -93.5z" />
<glyph d="M70 451q0 469 331 469q332 0 332 -469q0 -471 -332 -471q-331 0 -331 471zM264 451q0 -293 137 -293q136 0 136 293q0 288 -136 288q-137 0 -137 -288z" />
<glyph d="M115 676l231 223h172v-729h187v-170h-570v170h189v424l4 57h-4q-8 -19 -31 -39l-64 -59z" />
<glyph d="M80 84q0 72 23.5 132t61 101t82.5 75.5t90 62t82.5 53.5t61 57.5t23.5 67.5q0 47 -36 76.5t-89 29.5q-82 0 -164 -94l-127 113q46 71 128 116.5t173 45.5q129 0 220 -75.5t91 -203.5q0 -69 -29 -126t-72.5 -93t-95 -70t-96.5 -58.5t-76.5 -56.5t-35.5 -67h418v-170h-625 q-8 58 -8 84z" />
<glyph d="M66 117l100 137q32 -41 87 -68.5t114 -27.5q62 0 104.5 37t42.5 92t-47.5 85.5t-112.5 30.5h-71l-41 93l159 184l52 49v4q-41 -6 -74 -6h-264v172h573v-125l-201 -229q101 -20 162.5 -87t61.5 -173q0 -124 -92 -214.5t-242 -90.5q-89 0 -173.5 35.5t-137.5 101.5z" />
<glyph d="M31 203v131l387 565h221v-528h119v-168h-119v-203h-193v203h-415zM227 371h219v225q0 24 2 52t4 44l3 17h-4q-25 -56 -54 -97l-170 -237v-4z" />
<glyph d="M74 117l106 137q30 -42 82.5 -69t106.5 -27q64 0 110.5 39t46.5 100t-47 101t-114 40q-80 0 -146 -37l-104 39l45 459h502v-172h-345l-10 -96l-8 -51l4 -2q46 16 105 16q137 0 226 -87.5t89 -211.5q0 -128 -94 -221.5t-246 -93.5q-88 0 -169.5 35.5t-139.5 101.5z" />
<glyph d="M74 399q0 94 26.5 184t76 166.5t131.5 123.5t184 47q109 0 200 -48l-57 -165q-62 32 -133 32q-77 0 -131.5 -54.5t-75.5 -143.5h4q53 43 129 43q141 0 224 -83.5t83 -211.5q0 -132 -85.5 -220.5t-223.5 -88.5q-149 0 -250.5 112t-101.5 307zM274 360q0 -80 44.5 -141 t107.5 -61q55 0 86 38t31 95q0 63 -39 107t-107 44q-50 0 -86.5 -24.5t-36.5 -57.5z" />
<glyph d="M92 727v172h645v-133l-418 -766h-213l359 649l49 78v4q-37 -4 -80 -4h-342z" />
<glyph d="M63 260q0 123 142 225q-96 72 -96 185q0 118 88 184t211 66q78 0 146 -27.5t113.5 -86.5t45.5 -138q0 -101 -109 -222q127 -78 127 -202q0 -79 -47 -140.5t-121.5 -92.5t-161.5 -31t-162 30t-125.5 95.5t-50.5 154.5zM252 270q0 -57 44 -91t105 -34q53 0 94.5 30t41.5 79 q0 19 -9 36.5t-21 29.5t-36 27t-40.5 23t-49.5 23t-49 23q-80 -70 -80 -146zM295 662q0 -35 28 -64.5t53 -42.5t87 -41q5 -3 8 -4q59 74 59 145q0 45 -37.5 71t-86.5 26q-47 0 -79 -23t-32 -67z" />
<glyph d="M66 610q0 132 85.5 221t223.5 89q149 0 250.5 -113.5t101.5 -308.5q0 -73 -16 -146t-50 -140t-82 -118.5t-118 -82.5t-152 -31q-49 0 -105 12.5t-95 34.5l57 166q72 -33 133 -33q77 0 131.5 53.5t75.5 142.5h-4q-57 -43 -129 -43q-141 0 -224 84.5t-83 212.5zM258 608 q0 -63 38.5 -108t104.5 -45q51 0 88 25t37 57q0 80 -44 141t-107 61q-55 0 -86 -37.5t-31 -93.5z" />
<glyph horiz-adv-x="931" d="M72 262q0 68 28.5 124t74.5 93.5t101.5 68t111 55t101.5 47.5t74.5 52.5t28.5 63.5q0 88 -131 88q-144 0 -271 -90l-96 186q69 48 167.5 83.5t209.5 35.5q165 0 266 -73.5t101 -213.5q0 -70 -29 -127t-75 -95t-101.5 -69.5t-111.5 -55.5t-102 -46.5t-75 -50t-29 -59.5 q0 -43 40 -66t104 -23q90 0 170.5 37.5t122.5 77.5l118 -176q-71 -62 -179.5 -108t-237.5 -46q-178 0 -279.5 79t-101.5 208z" />
<glyph horiz-adv-x="1241" d="M82 549q0 146 51.5 262t157.5 187t252 71q94 0 177.5 -34t133.5 -103h6q-4 13 -4 29v83h246v-981q0 -104 -31.5 -188.5t-84 -140t-124 -93.5t-149.5 -54.5t-162 -16.5q-96 0 -195 24.5t-178 65.5l80 199q139 -68 289 -68q131 0 213 61.5t82 192.5v66l4 55h-4 q-97 -146 -293 -146q-145 0 -252.5 73t-161 191.5t-53.5 264.5zM344 557q0 -141 69 -229t193 -88q49 0 90 15.5t76.5 49t55.5 95.5t20 147q0 301 -258 301q-117 0 -181.5 -78.5t-64.5 -212.5z" />
<glyph horiz-adv-x="1607" d="M27 0l319 537v4l-293 503h271l231 -405h127v815h244v-815h127l231 405h270l-290 -503v-4l319 -537h-287l-239 420h-131v-420h-244v420h-131l-240 -420h-284z" />
<glyph horiz-adv-x="1243" d="M129 373v671h260v-618q0 -104 35.5 -158.5t126.5 -54.5q135 0 214 102.5t79 249.5v479h258v-1044h-250v123l6 72h-4q-41 -88 -139 -154t-223 -66q-363 0 -363 398z" />
<glyph horiz-adv-x="1243" d="M129 373v671h260v-618q0 -104 35.5 -158.5t126.5 -54.5q135 0 214 102.5t79 249.5v479h258v-1044h-250v123l6 72h-4q-41 -88 -139 -154t-223 -66q-363 0 -363 398zM276 1427v27h199v-27q0 -62 40.5 -95.5t96.5 -33.5t98 34.5t42 97.5v24h196v-27q0 -130 -98 -206 t-238 -76t-238 76t-98 206z" />
<glyph horiz-adv-x="1124" d="M139 0v1454h260v-778h129l252 368h289l-330 -466v-5l371 -573h-299l-276 457h-136v-457h-260z" />
<glyph horiz-adv-x="1110" d="M20 0l377 1044h310l372 -1044h-274l-215 647q-9 27 -18 66t-14 65l-5 25h-4q-19 -97 -39 -156l-217 -647h-273z" />
<glyph horiz-adv-x="1253" d="M139 0v1044h250v-122l-4 -74h4q18 37 47.5 72.5t74 70.5t109.5 56.5t140 21.5q364 0 364 -397v-672h-260v618q0 104 -36 158.5t-128 54.5q-135 0 -218 -98.5t-83 -243.5v-489h-260z" />
<glyph horiz-adv-x="1867" d="M139 0v1044h250v-122l-4 -74h4q42 86 135 153.5t207 67.5q237 0 303 -215h4q46 88 143.5 151.5t213.5 63.5q342 0 342 -397v-672h-258v623q0 65 -10.5 108t-43.5 71.5t-90 28.5q-85 0 -147 -53.5t-90.5 -134t-28.5 -174.5v-469h-260v623q0 38 -3 65.5t-11.5 56 t-23.5 46.5t-41 29t-62 11q-87 0 -150 -55.5t-91 -135.5t-28 -171v-469h-260z" />
<glyph horiz-adv-x="1318" d="M129 373v671h260v-618q0 -104 35.5 -158.5t126.5 -54.5q135 0 214 102.5t79 249.5v479h258v-823h170v-467h-234v246h-186v123l6 72h-4q-41 -88 -139 -154t-223 -66q-363 0 -363 398z" />
<glyph horiz-adv-x="1865" d="M129 371v671h258v-622q0 -48 6 -83.5t21 -65t44 -45t72 -15.5q85 0 147.5 53.5t91 134t28.5 174.5v469h260v-622q0 -48 5 -81.5t19 -64.5t43.5 -47t73.5 -16q66 0 118.5 32t84.5 84.5t48.5 115.5t16.5 130v469h260v-1044h-249v123l4 74h-4q-42 -87 -135 -154.5 t-207 -67.5q-238 0 -304 215h-4q-46 -88 -143 -151.5t-213 -63.5q-342 0 -342 398z" />
<glyph horiz-adv-x="1931" d="M129 371v671h258v-622q0 -48 6 -83.5t21 -65t44 -45t72 -15.5q85 0 147.5 53.5t91 134t28.5 174.5v469h260v-622q0 -48 5 -81.5t19 -64.5t43.5 -47t73.5 -16q66 0 118.5 32t84.5 84.5t48.5 115.5t16.5 130v469h260v-821h156v-467h-233v244h-172v123l4 74h-4 q-42 -87 -135 -154.5t-207 -67.5q-238 0 -304 215h-4q-46 -88 -143 -151.5t-213 -63.5q-342 0 -342 398z" />
<glyph horiz-adv-x="1204" d="M47 823v221h469v-270q0 -63 -2 -86h4q41 38 110.5 63t147.5 25q162 0 268.5 -107.5t106.5 -289.5q0 -187 -123.5 -295.5t-325.5 -108.5q-225 0 -335.5 111t-110.5 303v434h-209zM514 377q0 -89 49.5 -147t138.5 -58q82 0 134.5 50.5t52.5 148.5q0 107 -50.5 153.5 t-131.5 46.5q-90 0 -141.5 -53.5t-51.5 -140.5z" />
<glyph horiz-adv-x="1077" d="M129 389v655h260v-270q0 -40 -4 -86h4q42 37 112 62.5t146 25.5q164 0 269.5 -107.5t105.5 -289.5q0 -187 -123 -295.5t-326 -108.5q-225 0 -334.5 111t-109.5 303zM387 377q0 -89 49 -147t137 -58q82 0 135.5 50.5t53.5 148.5q0 107 -51 153.5t-133 46.5q-89 0 -140 -53 t-51 -141z" />
<glyph horiz-adv-x="1742" d="M139 0v1454h260v-823h172q35 195 185 316.5t354 121.5q154 0 281.5 -69.5t201.5 -195.5t74 -282q0 -158 -74 -283.5t-200.5 -194.5t-280.5 -69q-209 0 -359 123.5t-184 321.5h-170v-420h-260zM819 522q0 -144 84 -234.5t209 -90.5q124 0 207.5 90.5t83.5 234.5 q0 143 -84 234.5t-207 91.5q-125 0 -209 -91.5t-84 -234.5z" />
<glyph horiz-adv-x="1236" d="M121 502v389q0 261 142.5 424.5t387.5 163.5q185 0 288 -90.5t103 -212.5q0 -186 -227 -310v-4q65 -8 125 -35.5t111 -73.5t81.5 -118t30.5 -160q0 -225 -148.5 -362.5t-381.5 -137.5q-108 0 -196.5 31.5t-146 83t-96.5 121t-56 142t-17 149.5zM377 461q0 -132 71 -202.5 t181 -70.5q115 0 191.5 72t76.5 207q0 64 -22 112.5t-60 76t-83 40.5t-97 13q-46 0 -90 -14.5t-82.5 -43t-62 -78t-23.5 -112.5zM379 801h4q37 57 133 110l94 47q92 45 133 91t41 108q0 57 -45.5 95t-117.5 38q-108 0 -175 -82t-67 -225v-182z" />
<glyph horiz-adv-x="929" d="M-6 -330l104 201q105 -78 236 -78q125 0 193.5 68t68.5 172q0 105 -66 163t-196 58h-133v207h137q93 0 159 53.5t66 149.5q0 88 -56.5 137t-148.5 49q-61 0 -123 -24.5t-102 -63.5l-115 164q73 66 173 104.5t212 38.5q190 0 305 -102t117 -256q0 -120 -61 -205.5 t-156 -128.5v-4q248 -98 248 -355q0 -92 -34.5 -173t-97 -142.5t-157.5 -97t-209 -35.5q-96 0 -198 28t-166 72z" />
<glyph horiz-adv-x="1490" d="M23 227h151l432 1227h275l432 -1227h155v-514h-235v287h-975v-287h-235v514zM449 227h589l-239 717q-11 36 -24.5 89.5t-21.5 88.5l-8 35h-4q-28 -131 -53 -213z" />
<glyph horiz-adv-x="1337" d="M14 0l516 1454h275l516 -1454h-281l-315 944q-12 36 -26 89.5t-21 88.5l-8 35h-4q-27 -131 -54 -213l-313 -944h-285z" />
<glyph horiz-adv-x="1277" d="M35 209h129l313 835h322l309 -835h133v-455h-233v246h-738v-246h-235v455zM422 209h426l-168 465l-43 155h-4q-21 -96 -41 -155z" />
<glyph horiz-adv-x="1110" d="M20 0l377 1044h310l372 -1044h-274l-215 647q-9 27 -18 66t-14 65l-5 25h-4q-19 -97 -39 -156l-217 -647h-273z" />
<glyph horiz-adv-x="1863" d="M12 0l551 1454h520v-571h269q206 0 334.5 -122t128.5 -321q0 -196 -128.5 -318t-328.5 -122h-537v1227h-80l-458 -1227h-271zM1083 227h228q108 0 171.5 57t63.5 156q0 98 -64.5 156.5t-174.5 58.5h-224v-428z" />
<glyph horiz-adv-x="1587" d="M20 0l433 1044h503v-378h191q186 0 288.5 -87t102.5 -251q0 -154 -97 -241t-296 -87h-447v850h-82l-342 -850h-254zM956 178h158q86 0 130 40.5t44 109.5q0 72 -44.5 114.5t-133.5 42.5h-154v-307z" />
<glyph horiz-adv-x="1525" d="M14 0l516 1454h275l434 -1227h283v-143l-160 -371h-184l77 287h-215l-315 944q-12 36 -26 89.5t-21 88.5l-8 35h-4q-27 -131 -54 -213l-313 -944h-285z" />
<glyph horiz-adv-x="1253" d="M20 0l377 1044h310l294 -825h250v-137l-141 -328h-174l68 246h-199l-215 647q-9 27 -18 66t-14 65l-5 25h-4q-19 -97 -39 -156l-217 -647h-273z" />
</font>
</defs>
</svg>
